Дурная слава / Notorious (Альфред Хичкок / Alfred Hitchcock) [1946, США, триллер, детектив, BDRip 1080p]

xamster писал(а):
  1. Сохранены оригинальные чаптеры как на Blu-ray.
  2. На BD издана чуть более полная версия, чем на DVD от SomeWax, поэтому сделано две вставки из оригинала на отрезках 00:13:04-00:13:11 и 00:42:35-00:42:40, пропущена пара незначительных фраз.
  3. За работу над субтитрами спасибо antikillW.
MI
Код:
General
Complete name                    : F:\  -= Фильмы =-\Дурная слава (1946. Notorious).mkv
Format                           : Matroska
File size                        : 14.7 GiB
Duration                         : 1h 41mn
Overall bit rate                 : 20.7 Mbps
Movie name                       : http://rutracker.org/forum/viewtopic.php?t=3988079
Encoded date                     : UTC 2012-03-18 15:24:19
Writing application              : mkvmerge v4.9.1 ('Ich will') сборка от Jul 11 2011 23:53:15
Writing library                  : libebml v1.2.1 + libmatroska v1.1.1
Video
ID                               : 1
Format                           : AVC
Format/Info                      : Advanced Video Codec
Format profile                   : High@L4.1
Format settings, CABAC           : Yes
Format settings, ReFrames        : 5 frames
Muxing mode                      : Container profile=Unknown@4.1
Codec ID                         : V_MPEG4/ISO/AVC
Duration                         : 1h 41mn
Bit rate                         : 19.0 Mbps
Width                            : 1 476 pixels
Height                           : 1 080 pixels
Display aspect ratio             : 4:3
Frame rate                       : 23.976 fps
Color space                      : YUV
Chroma subsampling               : 4:2:0
Bit depth                        : 8 bits
Scan type                        : Progressive
Bits/(Pixel*Frame)               : 0.497
Stream size                      : 13.2 GiB (90%)
Title                            : Notorious.1946.1080p.BluRay.FLAC2.0.x264-LiNG
Writing library                  : x264 core 120 r2119 0637cd6
Encoding settings                : cabac=1 / ref=5 / deblock=1:-3:-3 / analyse=0x3:0x133 / me=umh / subme=11 / psy=1 / psy_rd=0.90:0.00 / mixed_ref=1 / me_range=48 / chroma_me=1 / trellis=2 / 8x8dct=1 / cqm=0 / deadzone=21,11 / fast_pskip=0 / chroma_qp_offset=-2 / threads=12 / sliced_threads=0 / nr=0 / decimate=0 / interlaced=0 / bluray_compat=0 / constrained_intra=0 / bframes=7 / b_pyramid=2 / b_adapt=2 / b_bias=0 / direct=3 / weightb=1 / open_gop=0 / weightp=2 / keyint=250 / keyint_min=23 / scenecut=40 / intra_refresh=0 / rc_lookahead=40 / rc=2pass / mbtree=1 / bitrate=19000 / ratetol=1.0 / qcomp=0.60 / qpmin=0 / qpmax=69 / qpstep=4 / cplxblur=20.0 / qblur=0.5 / ip_ratio=1.40 / aq=2:0.80
Language                         : English
Audio #1
ID                               : 2
Format                           : AC-3
Format/Info                      : Audio Coding 3
Mode extension                   : CM (complete main)
Codec ID                         : A_AC3
Duration                         : 1h 41mn
Bit rate mode                    : Constant
Bit rate                         : 192 Kbps
Channel(s)                       : 2 channels
Channel positions                : Front: L R
Sampling rate                    : 48.0 KHz
Bit depth                        : 16 bits
Stream size                      : 140 MiB (1%)
Title                            : MVO [SomeWax]
Language                         : Russian
Audio #2
ID                               : 3
Format                           : DTS
Format/Info                      : Digital Theater Systems
Codec ID                         : A_DTS
Duration                         : 1h 41mn
Bit rate mode                    : Constant
Bit rate                         : 1 510 Kbps
Channel(s)                       : 2 channels
Channel positions                : Front: L R
Sampling rate                    : 48.0 KHz
Bit depth                        : 24 bits
Stream size                      : 1.07 GiB (7%)
Title                            : Notorious.1946.DTS-HD.Core2.0_1509kbps
Language                         : English
Text #1
ID                               : 4
Format                           : UTF-8
Codec ID                         : S_TEXT/UTF8
Codec ID/Info                    : UTF-8 Plain Text
Language                         : Russian
Text #2
ID                               : 5
Format                           : UTF-8
Codec ID                         : S_TEXT/UTF8
Codec ID/Info                    : UTF-8 Plain Text
Language                         : English
Видеоряд от LiNG
Notorious 1946 1080p BluRay FLAC2.0 x264-LiNG
General Information
RUNTiME.........: 01h:41m:40s
SiZE............: 14.08 GB
ViDEO CODEC.....: x264, 2pass, L4.1
FRAMERATE.......: 23.976fps
ViDEO BiTRATE...: 19000 Kbps
RESOLUTiON......: 1476x1080
AUDiO...........: FLAC 2.0 English @ 658 kbps
AUDiO...........: AAC 2.0 English (q=0.25)
SUBTiTLE........: English .srt
SOURCE..........: BluRay 1080p AVC DTS MA 2.0 24-bit
IMDb............: wwww.imdb.com/title/tt0038787
IMDb RATiNG.....: 8.2/10
Post Information
ENCODER.........: Linghuteng
RELEASE DATE....: 03/16/2012
x264 Information
nor.avs: 1476x1080, 24000/1001 fps, 146272 frames
y4m [info]: 1476x1080p 0:0 @ 24000/1001 fps (cfr)
x264 [info]: using cpu capabilities: MMX2 SSE2Fast SSSE3 FastShuffle SSE4.2 AVX
x264 [info]: profile High, level 4.1
x264 [info]: frame I:743 Avg QP:19.90 size:187559
x264 [info]: frame P:25464 Avg QP:22.24 size:118744
x264 [info]: frame B:120065 Avg QP:23.79 size: 94334
x264 [info]: consecutive B-frames: 0.8% 0.3% 1.3% 4.1% 9.0% 71.0% 9.1% 4.4%
x264 [info]: mb I I16..4: 0.5% 97.2% 2.3%
x264 [info]: mb P I16..4: 0.1% 40.2% 0.6% P16..4: 18.3% 27.8% 9.7% 1.8% 0.0% skip: 1.5%
x264 [info]: mb B I16..4: 0.0% 18.6% 0.1% B16..8: 36.8% 24.3% 7.6% direct: 9.4% skip: 3.1% L0:48.9% L1:42.1% BI: 9.0%
x264 [info]: 8x8 transform intra:99.0% inter:75.5%
x264 [info]: direct mvs spatial:96.9% temporal:3.1%
x264 [info]: coded y,uvDC,uvAC intra: 99.1% 0.0% 0.0% inter: 82.1% 0.0% 0.0%
x264 [info]: i16 v,h,dc,p: 47% 18% 6% 29%
x264 [info]: i8 v,h,dc,ddl,ddr,vr,hd,vl,hu: 7% 6% 9% 11% 16% 13% 13% 12% 13%
x264 [info]: i4 v,h,dc,ddl,ddr,vr,hd,vl,hu: 8% 21% 3% 7% 13% 13% 12% 9% 13%
x264 [info]: i8c dc,h,v,p: 100% 0% 0% 0%
x264 [info]: Weighted P-Frames: Y:21.1% UV:0.1%
x264 [info]: ref P L0: 36.6% 11.6% 22.2% 14.7% 12.1% 2.8% 0.0%
x264 [info]: ref B L0: 62.8% 25.4% 9.7% 2.1%
x264 [info]: ref B L1: 85.4% 14.6%
x264 [info]: kb/s:18999.88
encoded 146272 frames, 2.30 fps, 18999.88 kb/s
Скриншоты
Encode----Source




Зеркало