Форт Апачи / Fort Apache (Джон Форд / John Ford) [1948, США, вестерн, BDRemux 1080p] MVO + Sub Rus, Eng + Original Eng


Год выпуска: 1948
Страна: США
Жанр: вестерн
Продолжительность: 02:07:52
Перевод: Профессиональный (многоголосый, закадровый) Somewax
Субтитры: русские, английские
Режиссер: Джон Форд / John Ford
В ролях: Джон Уэйн, Генри Фонда, Ширли Темпл, Педро Армендарис, Уорд Бонд, Джордж О’Брайен, Виктор МакЛаглен, Анна Ли, Ирен Рич, Дик Форан
Описание: Капитан Кирби Йорк несет службу в богом забытом форте. Он славится своим опытом в борьбе с индейцами. В форт прибывает полковник Оуэн Тьюсдэй, известный своей суровостью. Возглавив форт, он приводит войска в отличную боевую форму и готовится отразить атаки апачей, вставших на тропу войны.
Доп. информация:

Качество: BDRemux
Формат: MKV
Видео: MPEG-4 AVC Video 18939 kbps 1080p / 23,976 fps / 16:9 / High Profile 4.0
Аудио: Dolby Digital Audio Russian 2.0 / 48 kHz / 192 kbps
Аудио: DTS-HD Master Audio English 1037 kbps 1.0 / 48 kHz / 1037 kbps / 24-bit (DTS Core: 1.0 / 48 kHz / 768 kbps / 24-bit)
Цитата:
Исходный диск приобретен в рамках "Копилка HDCLUB: Помоги с Blu-ray". Благодарим: gelom, Bulfrogg, NickAlex, serg702, khapev2, Silverbeast, Кириллка, Acoustic, MDV, Natali59, tatkhmeln, snauts, Artyom82, Andy_Ko, av161955, jankusto, Ill415, moses, evg1976, lexus_08 и в особенности DimaJF
MI
General
Unique ID : 224862732125700747262939199388222059298 (0xA92AFCA6A47484DABA5CBC1885757322)
Complete name : G:\bluray\Fort.Apache.1948.1080p.Bluray.AVC.Remux.mkv
Format : Matroska
Format version : Version 2
File size : 18.0 GiB
Duration : 2h 7mn
Overall bit rate : 20.2 Mbps
Movie name : Fort.Apache.1948.1080p.Bluray.AVC.Remux
Encoded date : UTC 2012-03-13 18:38:50
Writing application : mkvmerge v4.9.1 ('Ich will') сборка от Jul 11 2011 23:53:15
Writing library : libebml v1.2.1 + libmatroska v1.1.1
Video
ID : 1
Format : AVC
Format/Info : Advanced Video Codec
Format profile : High@L4.0
Format settings, CABAC : Yes
Format settings, ReFrames : 2 frames
Format settings, GOP : M=1, N=20
Codec ID : V_MPEG4/ISO/AVC
Duration : 2h 7mn
Bit rate mode : Variable
Bit rate : 18.6 Mbps
Width : 1 920 pixels
Height : 1 080 pixels
Display aspect ratio : 16:9
Frame rate : 23.976 fps
Color space : YUV
Chroma subsampling : 4:2:0
Bit depth : 8 bits
Scan type : Progressive
Bits/(Pixel*Frame) : 0.374
Stream size : 16.6 GiB (92%)
Audio #1
ID : 2
Format : AC-3
Format/Info : Audio Coding 3
Mode extension : CM (complete main)
Codec ID : A_AC3
Duration : 2h 7mn
Bit rate mode : Constant
Bit rate : 192 Kbps
Channel(s) : 2 channels
Channel positions : Front: L R
Sampling rate : 48.0 KHz
Bit depth : 16 bits
Compression mode : Lossy
Stream size : 176 MiB (1%)
Title : Somewax
Language : Russian
Audio #2
ID : 3
Format : DTS
Format/Info : Digital Theater Systems
Format profile : MA / Core
Codec ID : A_DTS
Duration : 2h 7mn
Bit rate mode : Variable
Bit rate : 977 Kbps / 755 Kbps
Channel(s) : 1 channel
Channel positions : Front: C
Sampling rate : 48.0 KHz
Bit depth : 24 bits
Compression mode : Lossless / Lossy
Language : English
Text #1
ID : 4
Format : UTF-8
Codec ID : S_TEXT/UTF8
Codec ID/Info : UTF-8 Plain Text
Language : Russian
Text #2
ID : 5
Format : UTF-8
Codec ID : S_TEXT/UTF8
Codec ID/Info : UTF-8 Plain Text
Title : SRT
Language : English
Text #3
ID : 6
Format : PGS
Muxing mode : zlib
Codec ID : S_HDMV/PGS
Codec ID/Info : The same subtitle format used on BDs/HD-DVDs
Title : PGS
Language : English
Menu
00:00:00.000 : en:00:00:00.000
00:02:39.951 : en:00:02:39.951
00:07:19.898 : en:00:07:19.898
00:11:10.503 : en:00:11:10.503
00:16:17.476 : en:00:16:17.476
00:20:23.431 : en:00:20:23.431
00:24:26.632 : en:00:24:26.632
00:26:46.021 : en:00:26:46.021
00:30:14.855 : en:00:30:14.855
00:34:47.085 : en:00:34:47.085
00:38:17.837 : en:00:38:17.837
00:44:26.163 : en:00:44:26.163
00:48:03.172 : en:00:48:03.172
00:51:36.552 : en:00:51:36.552
00:57:10.510 : en:00:57:10.510
01:02:48.264 : en:01:02:48.264
01:07:16.032 : en:01:07:16.032
01:12:15.122 : en:01:12:15.122
01:16:25.706 : en:01:16:25.706
01:20:53.849 : en:01:20:53.849
01:24:18.553 : en:01:24:18.553
01:30:59.204 : en:01:30:59.204
01:34:33.167 : en:01:34:33.167
01:38:34.909 : en:01:38:34.909
01:42:14.462 : en:01:42:14.462
01:47:11.925 : en:01:47:11.925
01:51:58.045 : en:01:51:58.045
01:56:14.217 : en:01:56:14.217
02:00:58.168 : en:02:00:58.168
02:03:34.407 : en:02:03:34.407
Скриншоты