Мыс страха / Cape Fear (Дж. Ли Томпсон / J. Lee Thompson) [1962, США, триллер, драма, криминал, BDRip 1080p] Dub + 2x MVO + Sub Eng + Original Eng

Год выпуска: 1962
Страна: США
Жанр: триллер, драма, криминал
Продолжительность: 01:45:54
Перевод: Профессиональный (полное дублирование)
Перевод: Профессиональный (многоголосый закадровый) x2
Субтитры: английские
Режиссер: Дж. Ли Томпсон / J. Lee Thompson
В ролях: Грегори Пек, Роберт Митчум, Полли Берген, Лори Мартин, Мартин Болсам, Джек Крушен, Телли Савалас, Барри Чейз, Пол Коми, Джон МакКи
Описание: Адвокат Сэм Боуден - юрист в небольшом городке. Более восьми лет назад Сэм выступил свидетелем по делу Макса Кэйди, обвинявшегося в изнасиловании. Наихудший кошмар Боудена осуществляется, когда осужденный Кэйди выходит из тюрьмы, движимый одним только маниакальным желанием - отомстить адвокату и его семье, превратить их жизнь в настоящий ад.Несмотря на помощь местного шефа полиции и частного детектива, адвокат юридически бессилен против психопата. Поняв, что он не может защитить свою жену Пегги и дочь Нэнси, Сэм готовит ловушку для Кэйди.
Релиз от:
Rip by_genkasper

Качество: BDRip 1080p
Формат: MKV
Видео: MPEG4/ISO/AVC 10500 kbps 1920x1040p / 23,976 fps / High@L4.1
Аудио: DTS Audio Russian 2.0 / 48 kHz / 768 kbps / 24-bit [дубляж]
Аудио: Dolby Digital Audio Russian 2.0 / 48 kHz / 192 kbps [ОРТ]
Аудио: Dolby Digital Audio Russian 2.0 / 48 kHz / 192 kbps [ДВД Магия]
Аудио: DTS Audio English 2.0 / 48 kHz / 1510 kbps / 24-bit
MediaInfo
Полное имя : Cape.Fear.1962.BDRip.1080p.by_genkasper.mkv
Формат : Matroska
Версия формата : Version 2
Размер файла : 9,74 Гбайт
Продолжительность : 1 ч. 45 м.
Общий поток : 13,2 Мбит/сек
Название фильма : Cape.Fear.1962.1080p.Bluray.VC1.Remux
Дата кодирования : UTC 2012-01-14 16:59:12
Программа кодирования : mkvmerge v5.2.1 ('A Far Off Place') built on Jan 2 2012 23:21:10
Библиотека кодирования : libebml v1.2.3 + libmatroska v1.3.0
Видео
Идентификатор : 1
Формат : AVC
Формат/Информация : Advanced Video Codec
Профиль формата : High@L4.1
Параметр CABAC формата : Да
Параметр ReFrames формата : 4 кадра
Идентификатор кодека : V_MPEG4/ISO/AVC
Продолжительность : 1 ч. 45 м.
Битрейт : 10,5 Мбит/сек
Ширина : 1920 пикселей
Высота : 1040 пикселей
Соотношение сторон : 16:9
Частота кадров : 23,976 кадра/сек
Цветовое пространство : YUV
Субдискретизация насыщенности : 4:2:0
Битовая глубина : 8 бит
Тип развёртки : Прогрессивная
Бит/(Пиксели*Кадры) : 0.219
Размер потока : 7,59 Гбайт (78%)
Библиотека кодирования : x264 core 115 r1936 7a9e08d
Настройки программы : cabac=1 / ref=4 / deblock=1:-2:-2 / analyse=0x3:0x133 / me=umh / subme=10 / psy=1 / psy_rd=1.00:0.10 / mixed_ref=1 / me_range=24 / chroma_me=1 / trellis=2 / 8x8dct=1 / cqm=0 / deadzone=21,11 / fast_pskip=0 / chroma_qp_offset=-3 / threads=9 / sliced_threads=0 / nr=0 / decimate=1 / interlaced=0 / bluray_compat=0 / constrained_intra=0 / bframes=9 / b_pyramid=2 / b_adapt=2 / b_bias=0 / direct=3 / weightb=1 / open_gop=0 / weightp=2 / keyint=250 / keyint_min=23 / scenecut=40 / intra_refresh=0 / rc_lookahead=50 / rc=2pass / mbtree=1 / bitrate=10500 / ratetol=1.0 / qcomp=0.70 / qpmin=0 / qpmax=69 / qpstep=4 / cplxblur=20.0 / qblur=0.5 / ip_ratio=1.40 / aq=1:1.00
Язык : English
Аудио #1
Идентификатор : 2
Формат : DTS
Формат/Информация : Digital Theater Systems
Идентификатор кодека : A_DTS
Продолжительность : 1 ч. 45 м.
Вид битрейта : Постоянный
Битрейт : 755 Кбит/сек
Каналы : 2 канала
Расположение каналов : Front: L R
Частота : 48,0 КГц
Битовая глубина : 24 бит
Метод сжатия : С потерями
Задержка видео : 3 мс.
Размер потока : 571 Мбайт (6%)
Заголовок : Dub
Язык : Russian
Аудио #2
Идентификатор : 3
Формат : AC-3
Формат/Информация : Audio Coding 3
Расширение режима : CM (complete main)
Идентификатор кодека : A_AC3
Продолжительность : 1 ч. 45 м.
Вид битрейта : Постоянный
Битрейт : 192 Кбит/сек
Каналы : 2 канала
Расположение каналов : Front: L R
Частота : 48,0 КГц
Битовая глубина : 16 бит
Метод сжатия : С потерями
Задержка видео : 24 мс.
Размер потока : 145 Мбайт (1%)
Заголовок : ORT
Язык : Russian
Аудио #3
Идентификатор : 4
Формат : AC-3
Формат/Информация : Audio Coding 3
Расширение режима : CM (complete main)
Идентификатор кодека : A_AC3
Продолжительность : 1 ч. 45 м.
Вид битрейта : Постоянный
Битрейт : 192 Кбит/сек
Каналы : 2 канала
Расположение каналов : Front: L R
Частота : 48,0 КГц
Битовая глубина : 16 бит
Метод сжатия : С потерями
Задержка видео : 24 мс.
Размер потока : 145 Мбайт (1%)
Заголовок : DVD Magic
Язык : Russian
Аудио #4
Идентификатор : 5
Формат : DTS
Формат/Информация : Digital Theater Systems
Идентификатор кодека : A_DTS
Продолжительность : 1 ч. 45 м.
Вид битрейта : Постоянный
Битрейт : 1510 Кбит/сек
Каналы : 2 канала
Расположение каналов : Front: L R
Частота : 48,0 КГц
Битовая глубина : 24 бит
Метод сжатия : С потерями
Задержка видео : 3 мс.
Размер потока : 1,12 Гбайт (11%)
Заголовок : Eng
Язык : English
Текст
Идентификатор : 6
Формат : UTF-8
Идентификатор кодека : S_TEXT/UTF8
Идентификатор кодека/Информация : UTF-8 Plain Text
Заголовок : Eng, SRT
Язык : English
Меню
00:00:00.000 : en:00:00:00.000
00:01:18.120 : en:00:01:18.120
00:05:33.375 : en:00:05:33.375
00:09:00.290 : en:00:09:00.290
00:13:23.678 : en:00:13:23.678
00:20:29.728 : en:00:20:29.728
00:25:30.404 : en:00:25:30.404
00:31:42.901 : en:00:31:42.901
00:42:52.695 : en:00:42:52.695
00:46:13.980 : en:00:46:13.980
00:54:06.452 : en:00:54:06.452
01:02:41.299 : en:01:02:41.299
01:07:34.509 : en:01:07:34.509
01:10:03.241 : en:01:10:03.241
01:18:11.061 : en:01:18:11.061
01:27:16.314 : en:01:27:16.314
01:42:25.181 : en:01:42:25.181
01:45:05.633 : en:01:45:05.633
log 2-nd pass
x264 [info]: frame I:863 Avg QP:15.74 size:195543 PSNR Mean Y:48.14 U:100.00 V:100.00 Avg:49.90 Global:49.45
x264 [info]: frame P:31511 Avg QP:17.93 size: 86261 PSNR Mean Y:46.49 U:100.00 V:100.00 Avg:48.25 Global:47.67
x264 [info]: frame B:119967 Avg QP:20.64 size: 45453 PSNR Mean Y:44.74 U:100.00 V:100.00 Avg:46.50 Global:46.05
x264 [info]: consecutive B-frames: 0.9% 1.3% 1.9% 35.0% 10.1% 44.8% 2.3% 3.5% 0.1% 0.1%
x264 [info]: mb I I16..4: 6.6% 76.4% 17.0%
x264 [info]: mb P I16..4: 1.2% 19.4% 2.0% P16..4: 48.5% 23.3% 3.0% 0.2% 0.1% skip: 2.3%
x264 [info]: mb B I16..4: 0.0% 2.9% 0.3% B16..8: 43.7% 11.2% 2.3% direct:11.2% skip:28.4% L0:43.0% L1:41.5% BI:15.6%
x264 [info]: 8x8 transform intra:86.7% inter:52.6%
x264 [info]: direct mvs spatial:99.7% temporal:0.3%
x264 [info]: coded y,uvDC,uvAC intra: 93.4% 0.0% 0.0% inter: 35.0% 0.0% 0.0%
x264 [info]: i16 v,h,dc,p: 25% 13% 17% 45%
x264 [info]: i8 v,h,dc,ddl,ddr,vr,hd,vl,hu: 10% 9% 10% 10% 13% 12% 11% 12% 13%
x264 [info]: i4 v,h,dc,ddl,ddr,vr,hd,vl,hu: 8% 7% 4% 10% 15% 14% 14% 13% 15%
x264 [info]: i8c dc,h,v,p: 100% 0% 0% 0%
x264 [info]: Weighted P-Frames: Y:8.8% UV:0.0%
x264 [info]: ref P L0: 46.7% 7.7% 27.9% 16.4% 1.5% 0.0%
x264 [info]: ref B L0: 86.5% 10.3% 3.2%
x264 [info]: ref B L1: 94.3% 5.7%
x264 [info]: SSIM Mean Y:0.9811385 (17.244db)
x264 [info]: PSNR Mean Y:45.124 U:100.000 V:100.000 Avg:46.884 Global:46.357 kb/s:10500.35
Скриншоты и сравнение
Исходник Этот рип