Мятеж на Баунти / Mutiny on the Bounty (Льюис Майлстоун / Lewis Milestone, Кэрол Рид / Carol Reed) [1962, США, мелодрама, драма, приключения, история, BDRemux 1080p] MVO (НТВ+) + Sub Rus, Eng + Original Eng


Год выпуска: 1962
Страна: США
Жанр: мелодрама, драма, приключения, история
Продолжительность: 3:05:26
Перевод: Профессиональный (многоголосый, закадровый) НТВ+
Субтитры: русские, английские
Режиссер: Льюис Майлстоун / Lewis Milestone, Кэрол Рид / Carol Reed
В ролях: Марлон Брандо, Тревор Ховард, Ричард Харрис, Хью Гриффит, Ричард Хейдн, Тарита, Перси Херберт, Дункан Ламонт, Гордон Джексон, Чипс Рафферти
Описание: 1789 год. Экипаж британского корабля «Баунти» под руководством жестокого капитана Блая наполнив трюмы, отчаливает от берегов Таити.
До этого дня в течение шести месяцев команда корабля подвергалась физическим и моральным издевательствам со стороны капитана и его приспешников. Изнурительная работа и отсутствие пищи вынуждают моряков поднять бунт.
Зачинщиком мятежа становится матрос аристократ Кристиан Флетчер. Ссадив с корабля капитана и преданных ему людей, «Баунти» взял курс обратно на Таити, именно там Флетчер и другие мятежники решили провести всю оставшуюся жизнь...
Но их мечтам не суждено сбыться, дело дошло до королевского суда, и «по заслугам» получили все: Блай, Флетчер и вся команда бунтовщиков.
Доп. информация:

Качество: BDRemux (thx maltby)
Формат: MKV
Видео: MPEG-4 AVC Video 19965 kbps 1080p / 23,976 fps / 16:9 / High Profile 4.1
Аудио: Dolby Digital Audio Russian 2.0 / 48 kHz / 192 kbps
Аудио: DTS-HD Master Audio English 5.1 / 48 kHz / 3445 kbps / 24-bit (DTS Core: 5.1 / 48 kHz / 1509 kbps / 24-bit)
текст читали Владимир Вихров, Дмитрий Полонский, Алексей Демидов, Елена Соловьева
MI
General
Unique ID : 197879709370567507268500639316825328217 (0x94DE3EEA8B011EFBA1EE2E81AA87CA59)
Complete name : G:\bluray\Mutiny.on.the.Bounty.1962.1080p.Bluray.AVC.Remux.mkv
Format : Matroska
Format version : Version 2
File size : 30.6 GiB
Duration : 3h 5mn
Overall bit rate : 23.6 Mbps
Movie name : Mutiny.on.the.Bounty.1962.1080p.Bluray.AVC.Remux
Encoded date : UTC 2011-12-08 10:23:52
Writing application : mkvmerge v4.9.1 ('Ich will') сборка от Jul 11 2011 23:53:15
Writing library : libebml v1.2.1 + libmatroska v1.1.1
Video
ID : 1
Format : AVC
Format/Info : Advanced Video Codec
Format profile : High@L4.1
Format settings, CABAC : Yes
Format settings, ReFrames : 2 frames
Format settings, GOP : M=1, N=20
Codec ID : V_MPEG4/ISO/AVC
Duration : 3h 5mn
Bit rate mode : Variable
Bit rate : 20.5 Mbps
Width : 1 920 pixels
Height : 1 080 pixels
Display aspect ratio : 16:9
Frame rate : 23.976 fps
Color space : YUV
Chroma subsampling : 4:2:0
Bit depth : 8 bits
Scan type : Progressive
Bits/(Pixel*Frame) : 0.413
Stream size : 26.6 GiB (87%)
Title : uralmix
Audio #1
ID : 2
Format : AC-3
Format/Info : Audio Coding 3
Mode extension : CM (complete main)
Codec ID : A_AC3
Duration : 3h 5mn
Bit rate mode : Constant
Bit rate : 192 Kbps
Channel(s) : 2 channels
Channel positions : Front: L R
Sampling rate : 48.0 KHz
Bit depth : 16 bits
Compression mode : Lossy
Stream size : 255 MiB (1%)
Title : НТВ+
Language : Russian
Audio #2
ID : 3
Format : DTS
Format/Info : Digital Theater Systems
Format profile : MA / Core
Codec ID : A_DTS
Duration : 3h 5mn
Bit rate mode : Variable
Bit rate : 2 416 Kbps / 1 510 Kbps
Channel(s) : 6 channels
Channel positions : Front: L C R, Side: L R, LFE
Sampling rate : 48.0 KHz
Bit depth : 24 bits
Compression mode : Lossless / Lossy
Language : English
Text #1
ID : 4
Format : UTF-8
Codec ID : S_TEXT/UTF8
Codec ID/Info : UTF-8 Plain Text
Language : Russian
Text #2
ID : 5
Format : UTF-8
Codec ID : S_TEXT/UTF8
Codec ID/Info : UTF-8 Plain Text
Title : SRT
Language : English
Text #3
ID : 6
Format : PGS
Muxing mode : zlib
Codec ID : S_HDMV/PGS
Codec ID/Info : The same subtitle format used on BDs/HD-DVDs
Title : PGS
Language : English
Menu
00:00:00.000 : en:00:00:00.000
00:04:39.779 : en:00:04:39.779
00:06:52.078 : en:00:06:52.078
00:11:01.411 : en:00:11:01.411
00:16:09.302 : en:00:16:09.302
00:19:08.064 : en:00:19:08.064
00:24:17.623 : en:00:24:17.623
00:27:14.758 : en:00:27:14.758
00:30:51.725 : en:00:30:51.725
00:35:47.187 : en:00:35:47.187
00:38:15.210 : en:00:38:15.210
00:42:04.522 : en:00:42:04.522
00:48:01.837 : en:00:48:01.837
00:53:24.701 : en:00:53:24.701
00:57:36.536 : en:00:57:36.536
01:02:49.265 : en:01:02:49.265
01:07:51.067 : en:01:07:51.067
01:13:53.012 : en:01:13:53.012
01:17:48.497 : en:01:17:48.497
01:22:06.630 : en:01:22:06.630
01:26:25.680 : en:01:26:25.680
01:31:29.442 : en:01:31:29.442
01:35:06.034 : en:01:35:06.034
01:39:47.607 : en:01:39:47.607
01:43:52.977 : en:01:43:52.977
01:47:48.462 : en:01:47:48.462
01:48:08.482 : en:01:48:08.482
01:51:55.208 : en:01:51:55.208
01:55:28.338 : en:01:55:28.338
01:59:54.020 : en:01:59:54.020
02:05:16.342 : en:02:05:16.342
02:10:08.342 : en:02:10:08.342
02:14:28.102 : en:02:14:28.102
02:19:15.389 : en:02:19:15.389
02:22:15.610 : en:02:22:15.610
02:26:31.324 : en:02:26:31.324
02:28:39.953 : en:02:28:39.953
02:31:26.452 : en:02:31:26.452
02:35:56.514 : en:02:35:56.514
02:38:08.938 : en:02:38:08.938
02:43:02.356 : en:02:43:02.356
02:45:39.888 : en:02:45:39.888
02:51:18.477 : en:02:51:18.477
02:54:40.720 : en:02:54:40.720
02:58:22.775 : en:02:58:22.775
03:01:29.587 : en:03:01:29.587
Скриншоты