Том и Джерри. Золотая коллекция: Том первый [Диск 1] / Tom & Jerry Golden Collection: Volume One [Disk 1] (Джозеф Барбера, Уильям Ханна / Joseph Barbera, William Hanna) [1940-1948, мультфильм, комедия, семейный, BDRip 1080p] MVO + Eng


Том и Джерри [Диск 1] / Tom and Jerry [Диск 1]
Страна: США
Жанр: мультфильм, комедия, семейный
Продолжительность: 02:37:28
Год выпуска: 1940-1948
Перевод: Профессиональный (многоголосый закадровый)
Русские субтитры: нет
Режиссёр: (Джозеф Барбера / Joseph Barbera, Ханна Уильям / William Hanna
Роли озвучивали: Tom and Jerry
Описание: Кот Том и мышонок Джерри вызывали смех и покоряли сердца детей и взрослых всего мира на протяжении десятилетий. До сих пор эти два мультгероя-суперзвезды с неизменным успехом поражают зрителей своим мастерством перевоплощения, новыми изобретательными трюками и розыгрышами.
Следите за уморительными проделками этой неуловимой парочки в первоклассной коллекции незабываемых мультяшек, и вы узнаете об изощренных ловушках, которые подстраивают друг другу веселые герои, и отправляйтесь в незабываемое приключение – лучшее в истории анимационного кино!
Список серий:

001. Puss Gets The Boot / За что наказали кота (1940)
002. The Midnight Snack / Поздний ужин (1941)
003. The Night Before Christmas / Ночь перед Рождеством (1941)
004. Fraidy Cat / Кот-трусишка (1942)
005. Dog Trouble / Пес - нам не товарищ (1942)
006. Puss N Toots / Гости не должны скучать (1942)
007. The Bowling Alley-Cat / Давай сыграем в кегли (1942)
008. Fine Feathered Friend / Пернатая заступница (1942)
009. Sufferin Cats! / К чему приводит жадность (1943)
010. The Lonesome Mouse / Когда мышонку стало скучно (1943)
011. Yankee Doodle Mouse / Мышонок-стратег (1943)
012. Baby Puss / Нелегко быть младенцем (1943)
013. The Zoot Cat / Кот-стиляга (1944)
014. The Million Dollar Cat / Кот-миллионер (1944)
015. The Bodyguard / Телохранитель (1944)
016. Puttin On The Dog / В собачьей шкуре (1944)
017. Mouse Trouble / Неуловимый мышонок (1944)
018. The Mouse Comes To Dinner / Романтический ужин (1945)
019. Mouse In Manhattan / Мышонок в Нью-Йорке (1945)
020. Tee For Two / Игра в гольф (1945)
Семпл:Качество: BDRip 1080p
Формат: MKV
Видео: 1472x1080p / MPEG-4 AVC Video / 9714 kbps / 1080p / 23,976 fps
Аудио: Russian / Dolby Digital Audio / 2.0 / 48 kHz / 192 kbps Профессиональный (многоголосый закадровый)
Субтитры: нет
MediaInfo
Общее
Полное имя 005. Dog Trouble Пес - нам не товарищ (1942).mkv
Формат : Matroska
Размер файла : 565 Мбайт
Продолжительность : 8 м. 0 с.
Общий поток : 9869 Кбит/сек
Видео
Идентификатор : 1
Формат : AVC
Формат/Информация : Advanced Video Codec
Профиль формата : High@L4.0
Параметр CABAC формата : Да
Параметр ReFrames формата : 3 кадра
Идентификатор кодека : V_MPEG4/ISO/AVC
Продолжительность : 8 м. 0 с.
Битрейт : 9714 Кбит/сек
Ширина : 1472 пикселя
Высота : 1080 пикселей
Соотношение сторон : 4:3
Частота кадров : 23,976 кадра/сек
Цветовое пространство : YUV
Субдискретизация насыщенности : 4:2:0
Битовая глубина : 8 бит
Тип развёртки : Прогрессивная
Бит/(Пиксели*Кадры) : 0.255
Размер потока : 543 Мбайт (96%)
Аудио
Идентификатор : 2
Формат : AC-3
Формат/Информация : Audio Coding 3
Расширение режима : CM (complete main)
Идентификатор кодека : A_AC3
Продолжительность : 8 м. 0 с.
Вид битрейта : Постоянный
Битрейт : 192 Кбит/сек
Каналы : 2 канала
Расположение каналов : Front: L R
Частота : 48,0 КГц
Битовая глубина : 16 бит
Метод сжатия : С потерями
Размер потока : 11,0 Мбайт (2%)
Доп.мтериалы:
Оригинальные дорожки(Английский)
001. Puss Gets The Boot / За что наказали кота (1940)
002. The Midnight Snack / Поздний ужин (1941)
003. The Night Before Christmas / Ночь перед Рождеством (1941)
004. Fraidy Cat / Кот-трусишка (1942)
005. Dog Trouble / Пес - нам не товарищ (1942)
006. Puss N Toots / Гости не должны скучать (1942)
007. The Bowling Alley-Cat / Давай сыграем в кегли (1942)
008. Fine Feathered Friend / Пернатая заступница (1942)
009. Sufferin Cats! / К чему приводит жадность (1943)
010. The Lonesome Mouse / Когда мышонку стало скучно (1943)
011. Yankee Doodle Mouse / Мышонок-стратег (1943)
012. Baby Puss / Нелегко быть младенцем (1943)
013. The Zoot Cat / Кот-стиляга (1944)
014. The Million Dollar Cat / Кот-миллионер (1944)
015. The Bodyguard / Телохранитель (1944)
016. Puttin On The Dog / В собачьей шкуре (1944)
017. Mouse Trouble / Неуловимый мышонок (1944)
018. The Mouse Comes To Dinner / Романтический ужин (1945)
019. Mouse In Manhattan / Мышонок в Нью-Йорке (1945)
020. Tee For Two / Игра в гольф (1945)
Формат : AC-3
Аудио: English / Dolby Digital Audio / 1.0 / 48 kHz / 192 kbps
Скриншоты