Рай и ад / Tengoku to jigoku / High and Low (Акира Куросава / Akira Kurosawa) [1963, Япония, триллер, драма, криминал, BDRip 1080p] MVO + Original Jap + Sub Rus, Eng



Год выпуска: 1963
Страна: Япония
Продолжительность: 02:23:40
Перевод:: Профессиональный (многоголосый, закадровый)
Русские субтитры: есть
Режиссер: Акира Куросава
В ролях: Тосиро Мифунэ, Тацуя Накадаи, Кёко Кагава, Татсуя Михаши, Исао Кимура, Кэндзиро Ишияма, Такэси Като, Такаси Симура, Дзюн Тадзаки, Нобуо Накамура

Основанный на криминальном романе Эда МакБэйна, этот гениальный фильм Куросавы с Тосиро Мифуне в роли Кинго Гондо, богатого промышленника, который узнает, что его сын был похищен сумасшедшим, потребовавшим огромный выкуп. Если бы Гондо заплатил деньги, это разорило бы его. Еще до того как Гондо принял решение, его сын возвращается домой, и зритель узнает, что похищен сын его шофера, товарищ детских игр мальчика. Гондо сталкивается с тяжелейшей моральной дилеммой: стоит ли сын шофера столько же, сколько стоит его сын? Когда похититель звонит по телефону и признает свою ошибку, сумма выкупа остается прежней. Первоначально Гондо отказывается, но совесть мучает его.
В этой работе Куросава замечательно развивает интереснейшую в визуальном плане структуру стиля в широком формате. Первая половина фильма размещена в гостиной Гондо в его доме на вершине холма и характеризуется статичными кадрами. Камера может в течение нескольких минут быть направлена на какую-либо одну композицию. Бег времени обозначается уборкой и мытьем полов, создавая насыщенную саспенсом атмосферу. Эта статичность внезапно ломается во второй половине фильма, включая охоту на преступника, и снято все в обычном режиме съемки и монтажа - ритм становится бешеным по сравнению с первой половиной фильма. Снят этот драматический триллер в цветном и черно-белом изображении.
Большое спасибо за дорожки и субтитры christm и Yule.
Рип от CiNEFiLE

Рейтинги:



Качество: BDRip
Формат: MKV
Видео: x264 AVC 1920x816 / 23,976 fps / 9,4 Mbps
Аудио:
Дорожка 1: AC3 2.0 192 kbps 16-bit / 48 kHz (профессиональный многоголосый)
Дорожка 2: DTS 4.0 1510 kbps 24-bit / 48 kHz
Дорожка 3: AC3 2.0 192 kbps 16-bit / 48 kHz (комментарии)
Субтитры: Русские, английские.
MediaInfo
General
Unique ID : 180356294602253666009576364250911022882 (0x87AF5BDD27E6819BA799EB90C08D1F22)
Complete name : V:\Movies\Tengoku to jigoku (1963)\Tengoku to jigoku.mkv
Format : Matroska
File size : 11.3 GiB
Duration : 2h 23mn
Overall bit rate : 11.3 Mbps
Encoded date : UTC 2011-07-29 08:31:12
Writing application : mkvmerge v4.8.0 ('I Got The...') built on May 24 2011 03:12:58
Writing library : libebml v1.2.0 + libmatroska v1.1.0
Video
ID : 1
Format : AVC
Format/Info : Advanced Video Codec
Format profile : High@L4.1
Format settings, CABAC : Yes
Format settings, ReFrames : 5 frames
Format settings, GOP : M=4, N=32
Codec ID : V_MPEG4/ISO/AVC
Duration : 2h 23mn
Bit rate : 9 386 Kbps
Width : 1 920 pixels
Height : 816 pixels
Display aspect ratio : 2.35:1
Frame rate : 23.976 fps
Color space : YUV
Chroma subsampling : 4:2:0
Bit depth : 8 bits
Scan type : Progressive
Bits/(Pixel*Frame) : 0.250
Stream size : 9.20 GiB (81%)
Title : x264/AVC High@L4.1 / 23,976 fps / 9,3 Mbps
Writing library : x264 core 116 r2019 9cc407d
Encoding settings : cabac=1 / ref=5 / deblock=1:0:0 / analyse=0x3:0x113 / me=umh / subme=7 / psy=1 / psy_rd=1.00:0.00 / mixed_ref=1 / me_range=16 / chroma_me=1 / trellis=1 / 8x8dct=1 / cqm=0 / deadzone=21,11 / fast_pskip=0 / chroma_qp_offset=-2 / threads=18 / sliced_threads=0 / nr=0 / decimate=1 / interlaced=0 / bluray_compat=0 / constrained_intra=0 / bframes=3 / b_pyramid=2 / b_adapt=1 / b_bias=0 / direct=1 / weightb=1 / open_gop=0 / weightp=2 / keyint=250 / keyint_min=23 / scenecut=40 / intra_refresh=0 / rc_lookahead=40 / rc=2pass / mbtree=1 / bitrate=9386 / ratetol=1.0 / qcomp=0.60 / qpmin=0 / qpmax=69 / qpstep=4 / cplxblur=20.0 / qblur=0.5 / ip_ratio=1.40 / aq=1:1.00
Language : Japanese
Audio #1
ID : 2
Format : AC-3
Format/Info : Audio Coding 3
Mode extension : CM (complete main)
Codec ID : A_AC3
Duration : 2h 23mn
Bit rate mode : Constant
Bit rate : 192 Kbps
Channel(s) : 2 channels
Channel positions : Front: L R
Sampling rate : 48.0 KHz
Bit depth : 16 bits
Compression mode : Lossy
Stream size : 197 MiB (2%)
Title : Русский профессиональный многоголосый
Language : Russian
Audio #2
ID : 3
Format : DTS
Format/Info : Digital Theater Systems
Codec ID : A_DTS
Duration : 2h 23mn
Bit rate mode : Constant
Bit rate : 1 510 Kbps
Channel(s) : 4 channels
Channel positions : Front: L C R, Side: C
Sampling rate : 48.0 KHz
Bit depth : 24 bits
Compression mode : Lossy
Delay relative to video : 22ms
Stream size : 1.52 GiB (13%)
Title : Original japanese
Language : Japanese
Audio #3
ID : 4
Format : AC-3
Format/Info : Audio Coding 3
Mode extension : CM (complete main)
Codec ID : A_AC3
Duration : 2h 23mn
Bit rate mode : Constant
Bit rate : 192 Kbps
Channel(s) : 2 channels
Channel positions : Front: L R
Sampling rate : 48.0 KHz
Bit depth : 16 bits
Compression mode : Lossy
Stream size : 197 MiB (2%)
Title : Comments
Language : English
Text #1
ID : 5
Format : UTF-8
Codec ID : S_TEXT/UTF8
Codec ID/Info : UTF-8 Plain Text
Language : Russian
Text #2
ID : 6
Format : UTF-8
Codec ID : S_TEXT/UTF8
Codec ID/Info : UTF-8 Plain Text
Language : English

Скриншоты: