Этот безумный, безумный, безумный, безумный мир / It's a Mad Mad Mad Mad World (Стенли Крамер / Stanley Kramer) [1963, США, боевик, комедия, криминал, приключения, BDRip 1080p] 3x MVO + VO + 4x AVO + Sub Rus, Eng + Original Eng

MI
Код:
General
Complete name                    : F:\  -= Фильмы =-\It's a Mad Mad Mad Mad World (1963).mkv
Format                           : Matroska
File size                        : 17.6 GiB
Duration                         : 2h 39mn
Overall bit rate                 : 15.8 Mbps
Encoded date                     : UTC 2011-07-19 18:14:43
Writing application              : mkvmerge v4.9.1 ('Ich will') сборка от Jul 11 2011 23:53:15
Writing library                  : libebml v1.2.1 + libmatroska v1.1.1
Video
ID                               : 1
Format                           : AVC
Format/Info                      : Advanced Video Codec
Format profile                   : High@L4.1
Format settings, CABAC           : Yes
Format settings, ReFrames        : 5 frames
Muxing mode                      : Container profile=Unknown@4.1
Codec ID                         : V_MPEG4/ISO/AVC
Duration                         : 2h 39mn
Bit rate                         : 11.1 Mbps
Width                            : 1 920 pixels
Height                           : 696 pixels
Display aspect ratio             : 2.759
Frame rate                       : 23.976 fps
Color space                      : YUV
Chroma subsampling               : 4:2:0
Bit depth                        : 8 bits
Scan type                        : Progressive
Bits/(Pixel*Frame)               : 0.345
Stream size                      : 12.0 GiB (68%)
Writing library                  : x264 core 115 r2008 4c552d8
Encoding settings                : cabac=1 / ref=5 / deblock=1:-3:-3 / analyse=0x3:0x113 / me=umh / subme=10 / psy=1 / psy_rd=1.00:0.05 / mixed_ref=1 / me_range=48 / chroma_me=1 / trellis=2 / 8x8dct=1 / cqm=0 / deadzone=21,11 / fast_pskip=0 / chroma_qp_offset=-2 / threads=12 / sliced_threads=0 / nr=0 / decimate=1 / interlaced=0 / bluray_compat=0 / constrained_intra=0 / bframes=6 / b_pyramid=2 / b_adapt=2 / b_bias=0 / direct=3 / weightb=1 / open_gop=0 / weightp=2 / keyint=250 / keyint_min=23 / scenecut=40 / intra_refresh=0 / rc_lookahead=60 / rc=2pass / mbtree=1 / bitrate=11053 / ratetol=1.0 / qcomp=0.70 / qpmin=0 / qpmax=69 / qpstep=4 / cplxblur=20.0 / qblur=0.5 / vbv_maxrate=40000 / vbv_bufsize=30000 / nal_hrd=none / ip_ratio=1.40 / aq=2:0.90
Language                         : English
Audio #1
ID                               : 2
Format                           : AC-3
Format/Info                      : Audio Coding 3
Mode extension                   : CM (complete main)
Codec ID                         : A_AC3
Duration                         : 2h 39mn
Bit rate mode                    : Constant
Bit rate                         : 192 Kbps
Channel(s)                       : 2 channels
Channel positions                : Front: L R
Sampling rate                    : 48.0 KHz
Bit depth                        : 16 bits
Stream size                      : 219 MiB (1%)
Title                            : MVO [НТВ+]
Language                         : Russian
Audio #2
ID                               : 3
Format                           : AC-3
Format/Info                      : Audio Coding 3
Mode extension                   : CM (complete main)
Codec ID                         : A_AC3
Duration                         : 2h 39mn
Bit rate mode                    : Constant
Bit rate                         : 192 Kbps
Channel(s)                       : 2 channels
Channel positions                : Front: L R
Sampling rate                    : 48.0 KHz
Bit depth                        : 16 bits
Stream size                      : 219 MiB (1%)
Title                            : MVO [Somewax]
Language                         : Russian
Audio #3
ID                               : 4
Format                           : AC-3
Format/Info                      : Audio Coding 3
Mode extension                   : CM (complete main)
Codec ID                         : A_AC3
Duration                         : 2h 39mn
Bit rate mode                    : Constant
Bit rate                         : 384 Kbps
Channel(s)                       : 6 channels
Channel positions                : Front: L C R, Side: L R, LFE
Sampling rate                    : 48.0 KHz
Bit depth                        : 16 bits
Stream size                      : 438 MiB (2%)
Title                            : MVO [ДВД Магия]
Language                         : Russian
Audio #4
ID                               : 5
Format                           : AC-3
Format/Info                      : Audio Coding 3
Mode extension                   : CM (complete main)
Codec ID                         : A_AC3
Duration                         : 2h 39mn
Bit rate mode                    : Constant
Bit rate                         : 192 Kbps
Channel(s)                       : 2 channels
Channel positions                : Front: L R
Sampling rate                    : 48.0 KHz
Bit depth                        : 16 bits
Stream size                      : 219 MiB (1%)
Title                            : AVO [Артем Карапетян]
Language                         : Russian
Audio #5
ID                               : 6
Format                           : AC-3
Format/Info                      : Audio Coding 3
Mode extension                   : CM (complete main)
Codec ID                         : A_AC3
Duration                         : 2h 39mn
Bit rate mode                    : Constant
Bit rate                         : 384 Kbps
Channel(s)                       : 6 channels
Channel positions                : Front: L C R, Side: L R, LFE
Sampling rate                    : 48.0 KHz
Bit depth                        : 16 bits
Stream size                      : 438 MiB (2%)
Title                            : AVO [Визгунов]
Language                         : Russian
Audio #6
ID                               : 7
Format                           : AC-3
Format/Info                      : Audio Coding 3
Mode extension                   : CM (complete main)
Codec ID                         : A_AC3
Duration                         : 2h 39mn
Bit rate mode                    : Constant
Bit rate                         : 192 Kbps
Channel(s)                       : 2 channels
Channel positions                : Front: L R
Sampling rate                    : 48.0 KHz
Bit depth                        : 16 bits
Stream size                      : 219 MiB (1%)
Title                            : AVO [Горчаков]
Language                         : Russian
Audio #7
ID                               : 8
Format                           : AC-3
Format/Info                      : Audio Coding 3
Mode extension                   : CM (complete main)
Codec ID                         : A_AC3
Duration                         : 2h 39mn
Bit rate mode                    : Constant
Bit rate                         : 192 Kbps
Channel(s)                       : 2 channels
Channel positions                : Front: L R
Sampling rate                    : 48.0 KHz
Bit depth                        : 16 bits
Stream size                      : 219 MiB (1%)
Title                            : AVO [Михалев]
Language                         : Russian
Audio #8
ID                               : 9
Format                           : DTS
Format/Info                      : Digital Theater Systems
Codec ID                         : A_DTS
Duration                         : 2h 39mn
Bit rate mode                    : Constant
Bit rate                         : 1 510 Kbps
Channel(s)                       : 6 channels
Channel positions                : Front: L C R, Side: L R, LFE
Sampling rate                    : 48.0 KHz
Bit depth                        : 24 bits
Stream size                      : 1.68 GiB (10%)
Title                            : AVO [Живов]
Language                         : Russian
Audio #9
ID                               : 10
Format                           : DTS
Format/Info                      : Digital Theater Systems
Codec ID                         : A_DTS
Duration                         : 2h 39mn
Bit rate mode                    : Constant
Bit rate                         : 1 510 Kbps
Channel(s)                       : 6 channels
Channel positions                : Front: L C R, Side: L R, LFE
Sampling rate                    : 48.0 KHz
Bit depth                        : 24 bits
Stream size                      : 1.68 GiB (10%)
Language                         : English
Text #1
ID                               : 11
Format                           : UTF-8
Codec ID                         : S_TEXT/UTF8
Codec ID/Info                    : UTF-8 Plain Text
Title                            : Somewax
Language                         : Russian
Text #2
ID                               : 12
Format                           : UTF-8
Codec ID                         : S_TEXT/UTF8
Codec ID/Info                    : UTF-8 Plain Text
Title                            : ДВД Магия
Language                         : Russian
Text #3
ID                               : 13
Format                           : UTF-8
Codec ID                         : S_TEXT/UTF8
Codec ID/Info                    : UTF-8 Plain Text
Language                         : English
Menu
00:00:00.000                     : en:00:00:00.000
00:06:45.697                     : en:00:06:45.697
00:11:41.409                     : en:00:11:41.409
00:16:58.643                     : en:00:16:58.643
00:22:19.171                     : en:00:22:19.171
00:24:26.298                     : en:00:24:26.298
00:31:14.831                     : en:00:31:14.831
00:35:28.585                     : en:00:35:28.585
00:41:27.276                     : en:00:41:27.276
00:45:52.667                     : en:00:45:52.667
00:52:00.492                     : en:00:52:00.492
00:56:04.027                     : en:00:56:04.027
01:01:42.157                     : en:01:01:42.157
01:07:13.780                     : en:01:07:13.780
01:11:40.922                     : en:01:11:40.922
01:15:59.054                     : en:01:15:59.054
01:20:51.096                     : en:01:20:51.096
01:27:07.848                     : en:01:27:07.848
01:32:12.819                     : en:01:32:12.819
01:32:33.548                     : en:01:32:33.548
01:37:43.733                     : en:01:37:43.733
01:44:51.619                     : en:01:44:51.619
01:50:55.190                     : en:01:50:55.190
01:56:56.676                     : en:01:56:56.676
02:04:07.690                     : en:02:04:07.690
02:08:36.751                     : en:02:08:36.751
02:11:27.713                     : en:02:11:27.713
02:14:07.498                     : en:02:14:07.498
02:17:39.084                     : en:02:17:39.084
02:25:56.706                     : en:02:25:56.706
02:34:16.914                     : en:02:34:16.914
02:36:53.237                     : en:02:36:53.237
Видеоряд от CHD
It's.a.Mad.Mad.Mad.Mad.World.1963.BluRay.1080p.DTS.x264-CHD
RELEASE DATE....: 06/05/2011
THEATRE DATE....: 1963
iMDB URL........:
iMDB RATiNG.....: 7.4/10 (15,795 votes)
GENRE...........: Action | Adventure | Comedy | Crime
SOURCE .........: It's a Mad, Mad, Mad, Mad World 1963 1080p Blu-ray DTS-HD MA 5.1-CtrlHD
ViDEO BiTRATE...: x264 L4.1 High @ 11053 Kbps
FRAME RATE......: 23.976 fps
AUDiO 1.........: English DTS-HDMA core 5.1 1509Kbps
RUNTiME.........: 2:39:29 (h:m:s)
ASPECT RATiO....: 2.759 : 1
RESOLUTiON......: 1920 X 696
SUBTiTLES.......: N/A
FilE SiZE.......: 14G
ENCODER.........: dingxwsimon@CHD
Скриншоты (radikal)

Скриншоты (fastpic)