Искатели / The Searchers (Джон Форд / John Ford) [1956, США, драма, приключения, вестерн, BDRip 1080p] MVO (Film Prestige) + Original Eng


Страна: США
Жанр: драма, приключения, вестерн
Год выпуска: 1956
Продолжительность: 01:58:47
Перевод: Профессиональный (многоголосый закадровый) Film Prestige
Субтитры: нет
Оригинальная аудиодорожка: английский
Режиссер: Джон Форд / John Ford
В ролях: Джон Уэйн, Джеффри Хантер, Вера Майлз, Уорд Бонд, Натали Вуд, Джон Кволен, Олив Кэри, Генри Брэндон, Кен Кертис, Гарри Кэри мл.
Описание: Джон Уэйн играет бывшего солдата армии конфедерации Итана Эдвардса, который больше верит пулям, чем словам. Он разыскивает свою племянницу, похищенную команчами, которые убили всю его семью.
Ему не страшны ни голод, ни жажда, ни одиночество. За время своих отчаянных пятилетних поисков Итан находит то, что найти не ожидал: свою собственную человечность.
Меню: нет.
Качество Видео: BDRip (1080p)
Формат Видео: MKV
Видео: MPEG-4 AVC, 1920x1080 (16:9), 11.1 Mbps, 23.976 fps
Аудио 1: Русский: AC3, 2 ch, 48 KHz, 192 Kbps
Аудио 2: Английский: AC3, 1 ch, 48 KHz, 192 Kbps
Сэмпл
MediaInfo
General
Complete name : X:\Blue-ray\Fid\The Searchers.BDRip1080p.mkv
Format : Matroska
File size : 9.69 GiB
Duration : 1h 58mn
Overall bit rate : 11.7 Mbps
Encoded date : UTC 2011-07-12 20:20:36
Writing application : mkvmerge v2.3.0 ('Freak U') built on Sep 8 2008 18:32:16
Writing library : libebml v0.7.7 + libmatroska v0.8.1
Video
ID : 1
Format : AVC
Format/Info : Advanced Video Codec
Format profile : High@L4.0
Format settings, CABAC : Yes
Format settings, ReFrames : 1 frame
Codec ID : V_MPEG4/ISO/AVC
Duration : 1h 58mn
Bit rate mode : Variable
Bit rate : 11.1 Mbps
Maximum bit rate : 16.9 Mbps
Width : 1 920 pixels
Height : 1 080 pixels
Display aspect ratio : 16:9
Frame rate : 23.976 fps
Color space : YUV
Chroma subsampling : 4:2:0
Bit depth : 8 bits
Scan type : Progressive
Bits/(Pixel*Frame) : 0.223
Stream size : 9.18 GiB (95%)
Audio #1
ID : 2
Format : AC-3
Format/Info : Audio Coding 3
Format profile : Dolby Digital
Mode extension : CM (complete main)
Codec ID : A_AC3
Duration : 1h 58mn
Bit rate mode : Constant
Bit rate : 192 Kbps
Channel(s) : 2 channels
Channel positions : Front: L R
Sampling rate : 48.0 KHz
Bit depth : 16 bits
Stream size : 163 MiB (2%)
Language : Russian
Audio #2
ID : 3
Format : AC-3
Format/Info : Audio Coding 3
Mode extension : CM (complete main)
Codec ID : A_AC3
Duration : 1h 58mn
Bit rate mode : Constant
Bit rate : 192 Kbps
Channel(s) : 1 channel
Channel positions : Front: C
Sampling rate : 48.0 KHz
Bit depth : 16 bits
Stream size : 163 MiB (2%)
Language : English
Скриншоты