Восемь с половиной / 8½ / Otto E Mezzo (Федерико Феллини / Federico Fellini) [1963, Франция, Италия, фэнтези, драма, BDRip 1080p] MVO + Original Ita + Sub Rus, Eng


Страна: Франция, Италия
Жанр: фэнтези, драма
Год выпуска: 1963
Продолжительность: 2:19:04
Перевод: Профессиональный (многоголосый закадровый)
Субтитры: русские
Оригинальная аудиодорожка: итальянский
Режиссер: Федерико Феллини / Federico Fellini
В ролях: Марчелло Мастроянни / Marcello Mastroianni, Клаудиа Кардинале / Claudia Cardinale, Анук Эме / Anouk Aimee, Сандра Мило / Sandra Milo, Росселла Фальк / Rossella Falk, Барбара Стил / Barbara Steele, Маделин ЛеБо / Madeleine Lebeau, Катерина Боратто / Caterina Boratto, Эдра Гейл / Eddra Gale, Гуидо Альберти / Guido Alberti, Марио Коноккиа / Mario Conocchia, Бруно Агостини / Bruno Agostini, Чезарино Микели Пикарди / Cesarino Miceli Picardi, Жан Ружель / Jean Rougeul, Марио Пизу / Mario Pisu
Описание_1: Фильм — парафраз виртуозности и поэтичности творческого процесса режиссера: кризис, поиск, каверзы воображения, тупики, интеллектуальный климат, неразрывный поток субъективного и объективного.
И, конечно, обилие женщин, окружающих героя, его иллюзорный гарем, в котором все без исключения любят его, хотя идиллия перемежается с бунтом, подавлять который приходится с помощью хлыста.
Описание_2: Фильм Феллини является одним из самых новаторских кинопроизведений 60-х годов XX века. Автор картины снимает фильм о самом себе.
Режиссер Гвидо (Мастроянни) делает попытку создать фильм о спасении после ядерной катастрофы, начинает актерские пробы, утверждает смету, но не посвящает никого в свой замысел...
Зритель попадает в лабораторию режиссера, включается в его творческое поле, входит в бесконечную игру фантазий, где отображение действительности обозначает ее преображение. Такое новаторское, талантливое произведение невозможно пересказать - его надо смотреть. И не один раз!
Доп. информация: Рип от CtrlHD

За Русскую дорожку и Русские субтитры большое спасибо .
Награды и Номинации
Оскар, 1964 год
Победитель (2):
* Лучшая работа костюмера (ч/б фильмы)
* Лучший фильм на иностранном языке — «Италия»
Номинации (3):
* Лучший режиссер (Федерико Феллини)
* Лучший оригинальный сценарий
* Лучшая работа художника (ч/б фильмы)
Британская академия, 1964 год
Номинации (1):
* Лучший фильм
ММКФ, 1963 год
Победитель (1):
* Главный приз
Знаете ли вы, что...
* Съемочный период: 9 мая – 14 октября 1962.
* Оригинальное название «8 1/2» объясняется довольно просто – это восьмой с половиной фильм Федерико Феллини. Ранее он снял шесть полнометражных и две короткометражных (которые посчитал за одну) ленты, а также «Огни варьете», созданные в сотворчестве с Альберто Латтуадой (та самая искомая «половинка»).
* Феллини постоянно давал самому себе письменное напоминание – «Опомнись, это комедия».
* Феллини подумывал отдать главную роль Лоуренсу Оливье.
* Благодаря участию фильма на международном кинофестивале в Москве супруги Феллини в первый и последний раз посетили Советский Союз.
Сэмпл:
Тип релиза: BDRip 1080p
Контейнер: MKV
Видео: 1920 x 1036, 23,976 fps, 13304 kbit/s
Аудио_RUS: AC3 2.0, 48 KHz, 192 Kbps
Аудио_ITA: AC3 1.0, 48 KHz, 192 Kbps
MediaInfo
Общее
Уникальный идентификатор : 243386601684355004501144917519466584252 (0xB71A8DEEC63087A5BFA1BADBC9BD58BC)
Полное имя : X:\Cdjb\Eight.and.a.Half.1963.BluRay.1080p.x264-CtrlHD\Eight.and.a.Half.1963.BluRay.1080p.mkv
Формат : Matroska
Размер файла : 13,3 Гбайт
Продолжительность : 2 ч. 19 м.
Общий поток : 13,7 Мбит/сек
Дата кодирования : UTC 2011-01-26 15:16:02
Программа кодирования : mkvmerge v3.4.0 ('Rapunzel') сборка от May 15 2010 09:38:20
Библиотека кодирования : libebml v0.8.0 + libmatroska v0.9.0
Видео
Идентификатор : 1
Формат : AVC
Формат/Информация : Advanced Video Codec
Профиль формата : High@L4.1
Параметр CABAC формата : Да
Параметр ReFrames формата : 4 кадры
Параметры GOP формата : M=1, N=2
Идентификатор кодека : V_MPEG4/ISO/AVC
Продолжительность : 2 ч. 19 м.
Битрейт : 13,3 Мбит/сек
Ширина : 1920 пикс.
Высота : 1036 пикс.
Соотношение сторон : 1,853
Частота кадров : 23,976 кадр/сек
Цветовое пространство : YUV
Подвыборка цветности : 4:2:0
Битовая глубина : 8 бит
Тип развёртки : Прогрессивная
Бит/(Пиксели*Кадры) : 0.279
Размер потока : 12,7 Гбайт (95%)
Заголовок : H264 - 13304 Kbps
Библиотека кодирования : x264 core 68 r1183M f21daff
Настройки программы : cabac=1 / ref=4 / deblock=1:-3:-3 / analyse=0x3:0x113 / me=umh / subme=9 / psy_rd=0.9:0.0 / mixed_ref=1 / me_range=32 / chroma_me=1 / trellis=2 / 8x8dct=1 / cqm=0 / deadzone=21,11 / chroma_qp_offset=-2 / threads=3 / nr=0 / decimate=1 / mbaff=0 / bframes=9 / b_pyramid=0 / b_adapt=2 / b_bias=0 / direct=3 / wpredb=1 / keyint=250 / keyint_min=25 / scenecut=40 / rc=2pass / bitrate=13304 / ratetol=1.0 / qcomp=0.60 / qpmin=10 / qpmax=51 / qpstep=4 / cplxblur=20.0 / qblur=0.5 / ip_ratio=1.40 / pb_ratio=1.30 / aq=1:0.90
Язык : Italian
Аудио #1
Идентификатор : 2
Формат : AC-3
Формат/Информация : Audio Coding 3
Расширение режима : CM (complete main)
Идентификатор кодека : A_AC3
Продолжительность : 2 ч. 19 м.
Вид битрейта : Постоянный
Битрейт : 192 Кбит/сек
Канал(ы) : 2 канала(ов)
Расположение каналов : Front: L R
Частота : 48,0 КГц
Битовая глубина : 16 бит
Метод сжатия : С потерями
Размер потока : 191 Мбайт (1%)
Язык : Russian
Аудио #2
Идентификатор : 3
Формат : AC-3
Формат/Информация : Audio Coding 3
Расширение режима : CM (complete main)
Идентификатор кодека : A_AC3
Продолжительность : 2 ч. 19 м.
Вид битрейта : Постоянный
Битрейт : 192 Кбит/сек
Канал(ы) : 1 канал
Расположение каналов : Front: C
Частота : 48,0 КГц
Битовая глубина : 16 бит
Метод сжатия : С потерями
Размер потока : 191 Мбайт (1%)
Заголовок : Dolby Digital 1.0 - 192 Kbps
Язык : Italian
Текст #1
Идентификатор : 4
Формат : UTF-8
Идентификатор кодека : S_TEXT/UTF8
Идентификатор кодека/Информация : UTF-8 Plain Text
Язык : Russian
Текст #2
Идентификатор : 5
Формат : UTF-8
Идентификатор кодека : S_TEXT/UTF8
Идентификатор кодека/Информация : UTF-8 Plain Text
Язык : English
Текст #3
Идентификатор : 6
Формат : UTF-8
Идентификатор кодека : S_TEXT/UTF8
Идентификатор кодека/Информация : UTF-8 Plain Text
Язык : Turkish
Скриншоты