Одиночество бегуна на длинную дистанцию / The Loneliness of the Long Distance Runner (Тони Ричардсон / Tony Richardson) [1962, Великобритания, драма, спорт, BDRemux 1080p] VO (CВ-Дубль) + Sub eng + original eng



Страна: Великобритания
Студия: Woodfall Film Productions
Жанр: драма, спорт
Год выпуска: 1962
Продолжительность: 1:43:43
Перевод: Профессиональный (одноголосый закадровый) Доп.инфо о переводе фирма "CВ-Дубль", 1995 год
Субтитры: английские, английские (на комментарии)
Оригинальная аудиодорожка: английский
Режиссер: Тони Ричардсон / Tony Richardson
В ролях: Том Кортнэй /Tom Courtenay/, Джулия Фостер /Julia Foster/, Алек МакКауэн /Alec McCowen/, Рэймонд Дайер /Raymond Dyer/, Дервис Уорд /Dervis Ward/, Топси Джейн /Topsy Jane/, Джеймс Болэм /James Bolam/, Питер Мэдден /Peter Madden/, Эвис Баннэдж /Avis Bunnage/, Майкл Редгрэйв /Michael Redgrave/
Описание: Один из лучших британских фильмов эпохи "рассерженных молодых людей", поставленный по роману Алана Силлитоу - о растерянности молодого поколения, его протесте против жестокости, равнодушия и лицемерия общества.
Фильм рассказывает о Колине Смите (Том Кортнэй), подростке, приговоренном после ограбления пекарни к пребыванию в исправительной школе Борстал. Директор школы (Майкл Редгрэйв) верит в благотворное влияние спорта на юных правонарушителей и, узнав, что Колин - прирожденный бегун, уговаривает его тренироваться, чтобы иметь возможность участвовать в состязаниях с учениками частной школы, победа в которых обеспечила бы Колину особые привилегии и даже, возможно, досрочное освобождение. Монотонное существование воспитанников-заключённых и спортивные тренировки перемежаются воспоминаниями Колина о прежней жизни. Наступает день соревнований, Колин легко побеждает соперников, но у финишной черты происходит нечто неожиданное...
Дорожка СВ-Дубль взята из релиза HDClub, за что им огромное спасибо
Тип релиза: BDRemux 1080p
Контейнер: BDAV
Видео: VC-1, 1920x1080 (1.78:1), 19997 kbps, 23.976 fps
Аудио: русский, AC3, 48 kHz, 2ch, 192 kbps | VO
Аудио 2: английский, LPCM, 48 kHz, 2ch, 1536 kbps, 16 bit | Eng
Аудио 3: английский, AC3, 48 kHz, 2ch, 192 kbps | Commentary by Robert Murphy, Tom Courtenay, Alan Sillitoe
Формат субтитров: prerendered (Blu-ray/PGS/SUP)
Сохранены оригинальные чаптеры.
MediaInfo
General
ID : 1
Complete name : D:\The Loneliness of the Long Distance Runner Remux\BDMV\STREAM\00000.m2ts
Format : BDAV
Format/Info : Blu-ray Video
File size : 16.9 GiB
Duration : 1h 43mn
Overall bit rate : 23.3 Mbps
Maximum Overall bit rate : 35.5 Mbps
Video
ID : 4113 (0x1011)
Menu ID : 1 (0x1)
Format : VC-1
Format profile : AP@L3
Duration : 1h 43mn
Bit rate : 20.5 Mbps
Width : 1 920 pixels
Height : 1 080 pixels
Display aspect ratio : 16:9
Frame rate : 23.976 fps
Resolution : 8 bits
Colorimetry : 4:2:0
Scan type : Progressive
Bits/(Pixel*Frame) : 0.412
Stream size : 14.8 GiB (88%)
Audio #1
ID : 4352 (0x1100)
Menu ID : 1 (0x1)
Format : AC-3
Format/Info : Audio Coding 3
Duration : 1h 43mn
Bit rate mode : Constant
Bit rate : 192 Kbps
Channel(s) : 2 channels
Channel positions : Front: L R
Sampling rate : 48.0 KHz
Stream size : 142 MiB (1%)
Language : Russian / /
Audio #2
ID : 4353 (0x1101)
Menu ID : 1 (0x1)
Format : PCM
Format settings, Endianness : Big
Format settings, Sign : Signed
Muxing mode : Blu-ray
Duration : 1h 43mn
Bit rate mode : Constant
Bit rate : 1 536 Kbps
Channel(s) : 2 channels
Channel positions : Front: L R
Sampling rate : 48.0 KHz
Resolution : 16 bits
Stream size : 1.11 GiB (7%)
Language : English / /
Audio #3
ID : 4354 (0x1102)
Menu ID : 1 (0x1)
Format : AC-3
Format/Info : Audio Coding 3
Duration : 1h 43mn
Bit rate mode : Constant
Bit rate : 192 Kbps
Channel(s) : 2 channels
Channel positions : Front: L R
Sampling rate : 48.0 KHz
Stream size : 143 MiB (1%)
Language : English / /
Text #1
ID : 4608 (0x1200)
Menu ID : 1 (0x1)
Format : PGS
Language : English / /
Text #2
ID : 4609 (0x1201)
Menu ID : 1 (0x1)
Format : PGS
Language : English / /
BDInfo Report
DISC INFO:
Disc Title: The Loneliness of the Long Distance Runner Remux
Disc Size: 18 166 687 272 bytes
Protection: AACS
BD-Java: No
BDInfo: 0.5.6
PLAYLIST REPORT:
Name: 00000.MPLS
Length: 1:43:50 (h:m:s)
Size: 0 bytes
Total Bitrate: 20,01 Mbps
VIDEO:
Codec Bitrate Description
----- ------- -----------
VC-1 Video 19997 kbps 1080p / 23,976 fps / 16:9 / Advanced Profile 3
AUDIO:
Codec Language Bitrate Description
----- -------- ------- -----------
LPCM Audio English 1536 kbps 2.0 / 48 kHz / 1536 kbps / 16-bit
Dolby Digital Audio English 192 kbps 2.0 / 48 kHz / 192 kbps
Dolby Digital Audio Russian 192 kbps 2.0 / 48 kHz / 192 kbps
SUBTITLES:
Codec Language Bitrate Description
----- -------- ------- -----------
Presentation Graphics English 52,000 kbps
Presentation Graphics English 43,000 kbps

Скриншоты: