Леопард / The Leopard / Il gattopardo (Лукино Висконти / Luchino Visconti) [1963, Франция, Италия, мелодрама, драма, военный, история, BDRemux 1080p] 2x MVO (SomeWax, Film Prestige) + Original Ita + Sub Rus, Eng


Страна: Франция, Италия
Жанр: мелодрама, драма, военный, история
Год выпуска: 1963
Продолжительность: 03:05:51
Перевод: Профессиональный (многоголосый закадровый) Доп.инфо о переводе SomeWax
Перевод (2): Профессиональный (многоголосый закадровый) Доп.инфо о переводе2 Film Prestige
Субтитры: русские
Оригинальная аудиодорожка: итальянский
Режиссер: Лукино Висконти / Luchino Visconti
В ролях: Берт Ланкастер, Клаудия Кардинале, Ален Делон, Паоло Стоппа , Рина Морелли, Ромоло Валли, Теренс Хилл, Пьер Клементи, Люсилла Морлачи, Джулиано Джемма
Описание: В мае 1860 года в Италии разгорается гражданская война между республиканцами, сторонниками Гарибальди, и приверженцами правящей династии Бурбонов. Князь Фабрицио ди Салина, сицилийский феодал, образованный и мудрый аристократ-интеллектуал, с пониманием и пессимизмом относится к происходящим переменам.Поэтому, когда его молодой племянник Танкреди сначала вступает в ряды мятежников-гарибальдийцев, а затем становится офицером короля Савойского, дон Фабрицио не осуждает его. Сам князь Салина не хочет активно участвовать в политической борьбе. Он прекрасно осознает неизбежность происходящих больших перемен и чувствует, что его время «леопардов» и «львов» уходит.«Я принадлежу к уходящему классу, я свободен от иллюзий и не способен к самообману, гов
Доп. информация: Шедевр кино. Грандиозное кинополотно о судьбах людей в переломный момент истории страны. Главный приз на кинофестивале в Каннах, 1963г.
После смерти итальянского аристократа Джузеппе Томази ди Лампедуза, в его бумагах был найден роман «Леопард», принесший автору посмертную известность. Фильм стал одной из вершин в творчестве замечательного итальянского режиссера Лукино Висконти. Тщательное воссоздание интерьеров ушедшей эпохи, восхитительные пейзажи, эффектные батальные сцены и звездный состав актеров, все это способствовало большому успеху картины у зрителей всего мира.
• Одну из ролей исполняет Марио Джиротти, ставший позднее известным под именем Теренс Хилл.
Фильм поражает с первого кадра: режиссерская, операторская, актерские работы великолепны. Панорамы Сицилии воистину прекрасны. Дух тех времен и событий завораживают.
• Сохранены оригинальные чаптеры как на Blu-ray.
• Русская дорожка с DVD SomeWax подогнана без перекодирования.
• Русская дорожка от Film Prestige получена наложением выделенных голосов на оригинал LPCM 1.0. Grand Mersi AnryV!
• Лучшее издание от Criterion на сегодняший день по силе фильма и качеству реставрации.
Качество: BD-Remux
Контейнер: BDAV

Видео: MPEG-4 AVC, 1920x1080, 16:9, 30020 Кбит/с, 23.976 кадр/с
Аудио: Русский: 48 КГц, AC3, 2 канала, ~192.00 Кбит/с |Многоголосый закадровый, SomeWax|
Аудио 2: Русский: 48 КГц/24-бит, 1 канал, ~1152.00 Кбит/с |Многоголосый закадровый, Film Prestige|
Аудио 3: Итальянский: 48 КГц/24-бит, 1 канал, ~1152.00 Кбит/с
Аудио 4: Английский: 48 КГц, AC3, 2 канала, ~192.00 Кбит/с |Commentary by film scholar Peter Cowie|
MediaInfo
General
ID : 1
Complete name : X:\KOLYAN\ALL\Torrents\Video\IL_GATTOPARDO\BDMV\STREAM\00000.m2ts
Format : BDAV
Format/Info : Blu-ray Video
File size : 47.8 GiB
Duration : 3h 5mn
Overall bit rate : 36.8 Mbps
Maximum Overall bit rate : 35.5 Mbps
Video
ID : 4113 (0x1011)
Menu ID : 1 (0x1)
Format : AVC
Format/Info : Advanced Video Codec
Format profile : High@L4.1
Format settings, CABAC : Yes
Format settings, ReFrames : 4 frames
Duration : 3h 5mn
Bit rate mode : Variable
Maximum bit rate : 37.0 Mbps
Width : 1 920 pixels
Height : 1 080 pixels
Display aspect ratio : 16:9
Frame rate : 23.976 fps
Color space : YUV
Chroma subsampling : 4:2:0
Bit depth : 8 bits
Scan type : Progressive
Color primaries : BT.709-5, BT.1361, IEC 61966-2-4, SMPTE RP177
Transfer characteristics : BT.709-5, BT.1361
Matrix coefficients : BT.709-5, BT.1361, IEC 61966-2-4 709, SMPTE RP177
Audio #1
ID : 4352 (0x1100)
Menu ID : 1 (0x1)
Format : AC-3
Format/Info : Audio Coding 3
Mode extension : CM (complete main)
Duration : 3h 5mn
Bit rate mode : Constant
Bit rate : 192 Kbps
Channel(s) : 2 channels
Channel positions : Front: L R
Sampling rate : 48.0 KHz
Bit depth : 16 bits
Stream size : 255 MiB (1%)
Language : Russian
Audio #2
ID : 4353 (0x1101)
Menu ID : 1 (0x1)
Format : PCM
Format settings, Endianness : Big
Format settings, Sign : Signed
Muxing mode : Blu-ray
Duration : 3h 5mn
Bit rate mode : Constant
Bit rate : 0
Channel(s) : channel0
Sampling rate : 48.0 KHz
Bit depth : 24 bits
Language : Russian
Audio #3
ID : 4354 (0x1102)
Menu ID : 1 (0x1)
Format : PCM
Format settings, Endianness : Big
Format settings, Sign : Signed
Muxing mode : Blu-ray
Duration : 3h 5mn
Bit rate mode : Constant
Bit rate : 0
Channel(s) : channel0
Sampling rate : 48.0 KHz
Bit depth : 24 bits
Language : Italian
Audio #4
ID : 4355 (0x1103)
Menu ID : 1 (0x1)
Format : AC-3
Format/Info : Audio Coding 3
Mode extension : CM (complete main)
Duration : 3h 5mn
Bit rate mode : Constant
Bit rate : 192 Kbps
Channel(s) : 1 channel
Channel positions : Front: C
Sampling rate : 48.0 KHz
Bit depth : 16 bits
Stream size : 255 MiB (1%)
Language : English
Text #1
ID : 4608 (0x1200)
Menu ID : 1 (0x1)
Format : PGS
Language : Russian
Text #2
ID : 4609 (0x1201)
Menu ID : 1 (0x1)
Format : PGS
Language : English
Скриншоты