(Avant-Garde / Modern Composition / Free Jazz) Delta Saxophone Quartet - Dedicated To You... But You Weren't Listening (the music of Soft Machine) - 2007, APE (image+.cue), lossless


Жанр: Avant-Garde / Modern Composition / Free Jazz
Год выпуска диска: 2007
Производитель диска: MoonJune Records (MJR017)
Аудио кодек: APE
Тип рипа: image+.cue
Битрейт аудио: lossless
Продолжительность: 1:00:04
Трэклист:
01. Dedicated (2:46)
02. Facelift (8:30)
03. Somehow With The Passage Of Time (6:56)
04. Mousetrap (4:42)
05. Everything Is You (6:51)
06. To (2:03)
07. Outrageous Moon (5:48)
08. Aubade (2:22)
09. Noisette (4:39)
10. Floating World (5:43)
11. You (1:30)
12. The Tale Of Taliesin (1:54)
13. Dedicated To You (3:24)
14. Epilogue (2:56)
Graeme Blevins - soprano sax
Chris Caldwell - baritone sax
Tim Holmes - tenor sax
Pete Whyman - alto sax
featuring:
Hugh Hopper - electric bass, loops
Morgan Fisher - vocal, hurdy gurdy, background electronics
Recorded at The Premises Studios, Hackney, London, England. March 28th and 30th + May 29th, 2007
За рип спасибо barin99
EAC Log
Exact Audio Copy V0.99 prebeta 4 from 23. January 2008
EAC extraction logfile from 2. January 2010, 19:40
Delta Saxophone Quartet / Dedicated To You...But You Weren't Listening
Used drive : HL-DT-STRW/DVD GCC-4242N Adapter: 1 ID: 0
Read mode : Secure
Utilize accurate stream : Yes
Defeat audio cache : Yes
Make use of C2 pointers : No
Read offset correction : 102
Overread into Lead-In and Lead-Out : No
Fill up missing offset samples with silence : Yes
Delete leading and trailing silent blocks : No
Null samples used in CRC calculations : Yes
Used interface : Native Win32 interface for Win NT & 2000
Used output format : Internal WAV Routines
Sample format : 44.100 Hz; 16 Bit; Stereo
TOC of the extracted CD
Track | Start | Length | Start sector | End sector
---------------------------------------------------------
1 | 0:00.00 | 2:46.00 | 0 | 12449
2 | 2:46.00 | 8:30.00 | 12450 | 50699
3 | 11:16.00 | 6:55.41 | 50700 | 81865
4 | 18:11.41 | 4:42.27 | 81866 | 103042
5 | 22:53.68 | 6:50.39 | 103043 | 133831
6 | 29:44.32 | 2:03.24 | 133832 | 143080
7 | 31:47.56 | 5:47.51 | 143081 | 169156
8 | 37:35.32 | 2:22.00 | 169157 | 179806
9 | 39:57.32 | 4:39.30 | 179807 | 200761
10 | 44:36.62 | 5:43.18 | 200762 | 226504
11 | 50:20.05 | 1:29.65 | 226505 | 233244
12 | 51:49.70 | 1:54.00 | 233245 | 241794
13 | 53:43.70 | 3:24.05 | 241795 | 257099
14 | 57:08.00 | 2:56.00 | 257100 | 270299
Range status and errors
Selected range
Filename C:\_\EAC_Out\Out\Delta Saxophone Quartet - Dedicated To You...But You Weren't Listening\Delta Saxophone Quartet - Dedicated To You...But You Weren't Listening.wav
Peak level 98.8 %
Range quality 100.0 %
Copy CRC E5581D2B
Copy OK
No errors occurred
AccurateRip summary
Track 1 accurately ripped (confidence 1) [EEC6CD76]
Track 2 accurately ripped (confidence 1) [FD54A233]
Track 3 accurately ripped (confidence 1) [BC813CAF]
Track 4 accurately ripped (confidence 1) [562179B2]
Track 5 accurately ripped (confidence 1) [7471ACE3]
Track 6 accurately ripped (confidence 1) [CDD4524A]
Track 7 accurately ripped (confidence 1) [99036A74]
Track 8 accurately ripped (confidence 1) [6E4A104E]
Track 9 accurately ripped (confidence 1) [10561894]
Track 10 accurately ripped (confidence 1) [ABD9A70F]
Track 11 accurately ripped (confidence 1) [8E0CDBA4]
Track 12 accurately ripped (confidence 1) [4F9026F2]
Track 13 accurately ripped (confidence 1) [2F987B15]
Track 14 accurately ripped (confidence 1) [D2B0FFA4]
All tracks accurately ripped
End of status report