(Psychedelic Rock) V.A. - Real Life Permanent Dreams. A Cornucopia Of British Psychedelia (1965-1970) - 2007, FLAC (image+.cue), lossless // incl. Kinks, Marc Bolan, Jethro Tull, Small Faces, Soft Machine, Nice, Velvett Fogg & more...


Жанр: Psychedelic Rock
Год выпуска диска: 2007
Страна: Великобритания
Аудио кодек: FLAC
Тип рипа: image+.cue
Битрейт аудио: lossless
Продолжительность: 5:07:58.360 (1:17:22.293 + 1:17:22.000 + 1:15:07.080 + 1:18:06.987)
Четырех дисковый боксет, сборник британской психоделии. Состоящий из 99 треков разного переиода с 1965 по 1975. Включает в себя 6 ранее не издававшихся треков.
Разделен на 4 главы:
- зарождение и корни психоделии (ранняя пиходелия)
- самый расцвет психоделии
- психоделия как поп движение (цветочки, хиппи)
- переход от психоделии к прогрессиву (прото-прог)
Также включает 48ми страничный буклет (сканы прилагаются). В буклете краткие биографии и фото каждой группы.
Не издававшиеся раннеe треки помечены звездочкой (*)
.
.
.
.
.
.
.
Some words in english
This really is an essential purchase for lovers of late sixties British Psychedelia. Essentially it is an extension of Mojo`s Fab Set "Acid Drops, Spacedust & Flying Saucers".
Where selections are familiar to the listener the compilation concentrates on alternate takes. There are no less than 6 unreleased items of considerable interest and the set concentrates on listing the tracks in chronological order.
Highlights include but are not limited to the following: The Title Track by The Orange Machine, Lady Caroline by Velvet Fog, Love, Hate, Revenge by Episode Six (including Ian Gillan & Roger Glover), Circles by The Fleur De Lys & Lullaby by Grapefruit, which is a particular favorite. The package takes you from the origins of Psychedelic Music in the mid sixties to the time when Prog Rock impacted.
The liner notes are exhaustive and of much interest to those collectors of Psychedelic artefacts. As the writer says, because much of this colourful music was rooted in clubs such as UFO & Middle Earth in London by the time alot of the bands were intune with the scene, the scene had already moved on to more Progressive Rock pastures.
To this extent these gems were aleady redundant prior to their release. Which is a great shame because as this set ably testifys, this music has never died and continues to pick up fans by the droves. Long may it continue and long may we be blessed with exquisite sets like this (by Ben Watkins).

Disc 1: Sowing The Seed
01. The Smoke - My Friend Jack (3:10)
02. The Tornados '66 - No More You And Me (3:00)
03. Lord Sutch - The Cheat (3:15)
04. The Frame - Doctor Doctor (2:42)
05. The Drag Set - Day And Night (2:15)
06. The Kinks - Fancy (2:28)
07. The Traffic Jam - I Don't Want You (BBC Session) (2:33)
08. Honeybus - The Breaking-Up Scene (2:32)
09. Winston's Fumbs - Snow White (2:32)
10. Neil Christian & The Crusaders - I Like It (2:15)
11. Australian Playboys - Black Sheep R.I.P. (2:43)
12. The Fleur De Lys - Circles (3:02)
13. Marc Bolan (with John's Children) - The Lilac Hand Of Menthol Dan (1:53)
14. The Buzz - You're Holding Me Down (3:05)
15. The Riot Squad - I Take It That We're Through (2:51)
16. Paul & Ritchie & The Cryin' Shames - Come On Back (2:33)
17. The Kirkbys - It's A Crime (2:16)
18. The Kinks - Love Me Till The Sun Shines (BBC Session) (2:42)
19. Marc Bolan - Hippy Gumbo (2:06)
20. The Incredible String Band - Gently Tender (4:47)
21. Donovan - Sunny Goodge Street (2:56)
22. Floribunda Rose - Linda Loves Linda (3:29)
23. The Small Faces - Up The Wooden Hills To Bedfordshire (2:04)
24. Santa Barbara Machine Head - Rubber Monkey (2:35)
25. The Deviants - You've Got To Hold On (3:41)
26. Julie Driscoll, Brian Auger & The Trinity - Season Of The Witch (7:59)
Disc 2: Plant A Flower Child Today
01. The End - Loving Sacred Loving (Alt. Version) (2:50)
02. Blonde On Blonde - All Day, All Night (3:36)
03. Ramases And Selket - Crazy One (3:17)
04. Skip Bifferty - Man In Black (BBC Session) (2:45)
05. Icarus - Yellow Balloon (3:15) *
06. The Orange Machine - Real Life Permanent Dream (3:14)
07. Eire Apparent - The Crown (3:19)
08. The Rokes - When The Wind Arises (3:18)
09. Serendipity - I'm Flying (2:24)
10. The Orange Bicycle - Trip On An Orange Bicycle (3:33)
11. The Smoke - Utterly Simple (2:36)
12. Billy Nichols - London Social Degree (2:23)
13. Lomax Alliance - The Golden Lion (2:32) *
14. Jethro Toe (Tull) - Sunshine Day (2:20)
15. Paper Blitz Tissue - Boy Meets Girl (2:56)
16. The Bystanders - Cave Of Clear Light (3:43)
17. Anan - I Wonder Where My Sister's Gone (2:52)
18. The Marmalade - Man In A Shop (3:19)
19. The Bobcats - Lord John (2:52) *
20. The Peep Show - Mazy (3:12)
21. Moon's Train - Bakerman (2:39)
22. Episode Six - Love Hate Revenge (2:31)
23. The Tickle - Good Evening (2:37)
24. The Excelsior Spring - It (1:57)
25. Warm Sound - Night Is A-Comin' a.k.a. Lindyloo (Alt. Version) (4:17) *
26. The Crazy World Of Arthur Brown - Fire (Alt. Version) (3:05) *
Disc 3: Happydaystoytown
01. The Status Quo - Pictures Of Matchstick Men (BBC Session) (3:06)
02. Sun Dragon - Five White Horses (2:28)
03. The Turnstyle - Riding A Wave (2:47)
04. The Picadilly Line - I Know She Believes (3:03)
05. The Fox - Hey! Mr Carpenter (2:41)
06. Timon - The Bitter Thoughts of Little Jane (2:19)
07. Gilbert - Disappear (2:06)
08. Our Plastic Dream - Encapsulated Marigold (2:38)
09. The Epics - Harry Long (2:45)
10. Grapefruit - Lullaby (3:30)
11. Harmony Grass - I've Seen To Dream (3:13)
12. Spectrum - Nodnol (2:50)
13. West Coast Consortium - Colour Sergeant Lillywhite (3:07)
14. The Yellow Bellow Room Boom - Seeing Things Green (2:28)
15. The Californians - Golden Apples (2:12)
16. The Loot - Don't Turn Around (2:52)
17. The Beatstalkers - Silver Tree Top School For Boys (2:10)
18. The Crazy World Of Arthur Brown - Give Him A Flower (3:01)
19. Tony Hazzard - Fade Away Maureen (2:40)
20. The Rockin' Berries - Yellow Rainbow (2:48)
21. The Hill - Sylvie (Alt. Version) (3:28) *
22. Andy Ellison - Fool From Upper Eden (2:53)
23. The Uglys - Love And Best Wishes (BBC Session) (2:58)
24. The Gun - Sunshine (3:56)
25. Twice As Much - Green Circles (2:42)
26. The Alan Brown Set - Mr. Job (2:21)
27. The Small Faces - Happydaystoytown (2:06)
Disc 4: Circus Days Are Here Again
01. Junior's Eyes - Circus Days (2:56)
02. The Kult - No Home Today (2:48)
03. Velvett Fog - Lady Caroline (2:23)
04. Andromeda - Go Your Way (3:05)
05. The Nice - The Diamond Hard Apples Of The Moon (2:46)
06. Sam Gopal - Cold Embrace (3:20)
07. Hardin-York - Candellight (4:34)
08. Fat Matress - How Can I Live? (4:25)
09. Andrew Brown - Tarot (Ace Of Wands Theme) (2:26)
10. Humple Pie - The Light Of Love (3:00)
11. Bobak Jons Malone - On A Meadow Lea (3:32)
12. Pussy - The Open Ground (3:34)
13. Woody Kern - Fair Maiden (4:45)
14. Man - Empty Room (3:44)
15. Samson - Venus (2:57)
16. Opal Butterfly - My Gration Or? (7:29)
17. Soft Machine - Thank You Pierrot Lunarie / Have You Ever Bean Green? / Pataphysical Introduction Pt. 2 (Live) (2:59)
18. Andwella's Dream - Felix (4:17)
19. Spice - Born In A Trunk (3:45)
20. Stray - All In Your Mind (9:21)

EAC Logs
Disc 1
Exact Audio Copy V0.99 prebeta 5 from 4. May 2009
EAC extraction logfile from 29. August 2009, 12:45
Various / Real Life Permanent Dreams CD1 - Sowing The Seeds
Used drive : HL-DT-STDVDRRW GSA-2164D Adapter: 6 ID: 0
Read mode : Secure
Utilize accurate stream : Yes
Defeat audio cache : Yes
Make use of C2 pointers : No
Read offset correction : 102

Overread into Lead-In and Lead-Out : No
Fill up missing offset samples with silence : Yes
Delete leading and trailing silent blocks : No
Null samples used in CRC calculations : Yes
Used interface : Native Win32 interface for Win NT & 2000
Used output format : Internal WAV Routines
Sample format : 44.100 Hz; 16 Bit; Stereo
TOC of the extracted CD
Track | Start | Length | Start sector | End sector
---------------------------------------------------------
1 | 0:00.00 | 3:09.62 | 0 | 14236
2 | 3:09.62 | 2:59.41 | 14237 | 27702
3 | 6:09.28 | 3:14.62 | 27703 | 42314
4 | 9:24.15 | 2:41.52 | 42315 | 54441
5 | 12:05.67 | 2:15.01 | 54442 | 64567
6 | 14:20.68 | 2:27.60 | 64568 | 75652
7 | 16:48.53 | 2:32.63 | 75653 | 87115
8 | 19:21.41 | 2:31.59 | 87116 | 98499
9 | 21:53.25 | 2:31.61 | 98500 | 109885
10 | 24:25.11 | 2:14.67 | 109886 | 120002
11 | 26:40.03 | 2:42.42 | 120003 | 132194
12 | 29:22.45 | 3:02.37 | 132195 | 145881
13 | 32:25.07 | 1:52.59 | 145882 | 154340
14 | 34:17.66 | 3:04.39 | 154341 | 168179
15 | 37:22.30 | 2:50.72 | 168180 | 181001
16 | 40:13.27 | 2:33.13 | 181002 | 192489
17 | 42:46.40 | 2:16.25 | 192490 | 202714
18 | 45:02.65 | 2:42.20 | 202715 | 214884
19 | 47:45.10 | 2:06.15 | 214885 | 224349
20 | 49:51.25 | 4:46.44 | 224350 | 245843
21 | 54:37.69 | 2:55.52 | 245844 | 259020
22 | 57:33.46 | 3:29.31 | 259021 | 274726
23 | 61:03.02 | 2:04.23 | 274727 | 284049
24 | 63:07.25 | 2:35.07 | 284050 | 295681
25 | 65:42.32 | 3:40.59 | 295682 | 312240
26 | 69:23.16 | 7:59.06 | 312241 | 348171
Range status and errors
Selected range
Filename D:\My Rips\V.A. - Real Life Permanent Dreams A Cornucopia of British Psychedelia\V.A. - Real Life Permanent Dreams (Disc 1).wav
Peak level 100.0 %
Range quality 100.0 %
Copy CRC 8214856B
Copy OK
No errors occurred
AccurateRip summary
Track 1 accurately ripped (confidence 2) [83808849]
Track 2 accurately ripped (confidence 3) [618A9A58]
Track 3 accurately ripped (confidence 3) [E331E978]
Track 4 accurately ripped (confidence 3) [9B7CD13F]
Track 5 accurately ripped (confidence 3) [D19006E1]
Track 6 accurately ripped (confidence 3) [5BA4568F]
Track 7 accurately ripped (confidence 3) [59C008C2]
Track 8 accurately ripped (confidence 3) [53E027D7]
Track 9 accurately ripped (confidence 3) [25C4DEF5]
Track 10 accurately ripped (confidence 3) [FEA29F37]
Track 11 accurately ripped (confidence 3) [E305F243]
Track 12 accurately ripped (confidence 2) [1B557CB3]
Track 13 accurately ripped (confidence 3) [6F354AC8]
Track 14 accurately ripped (confidence 3) [9D244225]
Track 15 accurately ripped (confidence 3) [68714486]
Track 16 accurately ripped (confidence 3) [2581D002]
Track 17 accurately ripped (confidence 3) [3E8AF50A]
Track 18 accurately ripped (confidence 3) [4784AA4C]
Track 19 accurately ripped (confidence 3) [614593DE]
Track 20 accurately ripped (confidence 3) [FD2B1A29]
Track 21 accurately ripped (confidence 3) [3FD49DCE]
Track 22 accurately ripped (confidence 3) [1B2D33A6]
Track 23 accurately ripped (confidence 2) [C8FF741E]
Track 24 accurately ripped (confidence 3) [D3705273]
Track 25 accurately ripped (confidence 3) [315951AE]
Track 26 accurately ripped (confidence 3) [8BA9FD81]
All tracks accurately ripped

End of status report
Disc 2
Exact Audio Copy V0.99 prebeta 5 from 4. May 2009
EAC extraction logfile from 29. August, 13:12
Various / Real Life Permanent Dreams : A Cornucopia of British Psychedelia 1965-1970 - CD2
Used drive : HL-DT-STDVDRRW GSA-2164D Adapter: 6 ID: 0
Read mode : Secure
Utilize accurate stream : Yes
Defeat audio cache : Yes
Make use of C2 pointers : No
Read offset correction : 102

Overread into Lead-In and Lead-Out : No
Fill up missing offset samples with silence : Yes
Delete leading and trailing silent blocks : No
Null samples used in CRC calculations : Yes
Used interface : Native Win32 interface for Win NT & 2000
Used output format : Internal WAV Routines
Sample format : 44.100 Hz; 16 Bit; Stereo
TOC of the extracted CD
Track | Start | Length | Start sector | End sector
---------------------------------------------------------
1 | 0:00.00 | 2:50.32 | 0 | 12781
2 | 2:50.32 | 3:35.42 | 12782 | 28948
3 | 6:25.74 | 3:17.09 | 28949 | 43732
4 | 9:43.08 | 2:44.73 | 43733 | 56105
5 | 12:28.06 | 3:14.41 | 56106 | 70696
6 | 15:42.47 | 3:14.11 | 70697 | 85257
7 | 18:56.58 | 3:18.62 | 85258 | 100169
8 | 22:15.45 | 3:18.24 | 100170 | 115043
9 | 25:33.69 | 2:23.60 | 115044 | 125828
10 | 27:57.54 | 3:32.50 | 125829 | 141778
11 | 31:30.29 | 2:35.51 | 141779 | 153454
12 | 34:06.05 | 2:22.61 | 153455 | 164165
13 | 36:28.66 | 2:31.74 | 164166 | 175564
14 | 39:00.65 | 2:20.33 | 175565 | 186097
15 | 41:21.23 | 2:56.15 | 186098 | 199312
16 | 44:17.38 | 3:42.51 | 199313 | 216013
17 | 48:00.14 | 2:52.37 | 216014 | 228950
18 | 50:52.51 | 3:18.59 | 228951 | 243859
19 | 54:11.35 | 2:51.38 | 243860 | 256722
20 | 57:02.73 | 3:12.36 | 256723 | 271158
21 | 60:15.34 | 2:38.64 | 271159 | 283072
22 | 62:54.23 | 2:31.29 | 283073 | 294426
23 | 65:25.52 | 2:36.40 | 294427 | 306166
24 | 68:02.17 | 1:56.66 | 306167 | 314932
25 | 69:59.08 | 4:17.34 | 314933 | 334241
26 | 74:16.42 | 3:05.33 | 334242 | 348149
Range status and errors
Selected range
Filename D:\My Rips\V.A. - Real Life Permanent Dreams A Cornucopia of British Psychedelia\V.A. - Real Life Permanent Dreams (Disc 2).wav
Peak level 98.8 %
Range quality 100.0 %
Copy CRC 559E1322
Copy OK
No errors occurred
AccurateRip summary
Track 1 accurately ripped (confidence 2) [20CCA602]
Track 2 accurately ripped (confidence 2) [D829FD96]
Track 3 accurately ripped (confidence 2) [082A06DB]
Track 4 accurately ripped (confidence 2) [87FA9ED2]
Track 5 accurately ripped (confidence 2) [C68DD3A8]
Track 6 accurately ripped (confidence 2) [C5BA37A0]
Track 7 accurately ripped (confidence 2) [7E3204D9]
Track 8 accurately ripped (confidence 2) [36F4A3F6]
Track 9 accurately ripped (confidence 2) [F9063B88]
Track 10 accurately ripped (confidence 2) [52C0ED0D]
Track 11 accurately ripped (confidence 2) [503A64E5]
Track 12 accurately ripped (confidence 2) [B052A1BC]
Track 13 accurately ripped (confidence 2) [FB89BF3A]
Track 14 accurately ripped (confidence 2) [4FCB8B97]
Track 15 accurately ripped (confidence 2) [3BA86A37]
Track 16 accurately ripped (confidence 2) [304EB060]
Track 17 accurately ripped (confidence 2) [006B7C57]
Track 18 accurately ripped (confidence 2) [1C0E8257]
Track 19 accurately ripped (confidence 2) [52069EB9]
Track 20 accurately ripped (confidence 2) [D5026950]
Track 21 accurately ripped (confidence 2) [14C5BA51]
Track 22 accurately ripped (confidence 2) [71ED6ABB]
Track 23 accurately ripped (confidence 2) [7BEAA3A4]
Track 24 accurately ripped (confidence 2) [CDA4D801]
Track 25 accurately ripped (confidence 2) [4ED53033]
Track 26 accurately ripped (confidence 2) [B3E3BEF0]
All tracks accurately ripped

End of status report
Disc 3
Exact Audio Copy V0.99 prebeta 5 from 4. May 2009
EAC extraction logfile from 29. August, 13:34
Various / Real Life Permanent Dreams CD3 - Happydaystoytown
Used drive : HL-DT-STDVDRRW GSA-2164D Adapter: 6 ID: 0
Read mode : Secure
Utilize accurate stream : Yes
Defeat audio cache : Yes
Make use of C2 pointers : No
Read offset correction : 102

Overread into Lead-In and Lead-Out : No
Fill up missing offset samples with silence : Yes
Delete leading and trailing silent blocks : No
Null samples used in CRC calculations : Yes
Used interface : Native Win32 interface for Win NT & 2000
Used output format : Internal WAV Routines
Sample format : 44.100 Hz; 16 Bit; Stereo
TOC of the extracted CD
Track | Start | Length | Start sector | End sector
---------------------------------------------------------
1 | 0:00.00 | 3:06.34 | 0 | 13983
2 | 3:06.34 | 2:28.23 | 13984 | 25106
3 | 5:34.57 | 2:46.50 | 25107 | 37606
4 | 8:21.32 | 3:03.21 | 37607 | 51352
5 | 11:24.53 | 2:40.58 | 51353 | 63410
6 | 14:05.36 | 2:18.72 | 63411 | 73832
7 | 16:24.33 | 2:05.70 | 73833 | 83277
8 | 18:30.28 | 2:37.39 | 83278 | 95091
9 | 21:07.67 | 2:44.59 | 95092 | 107450
10 | 23:52.51 | 3:29.57 | 107451 | 123182
11 | 27:22.33 | 3:12.40 | 123183 | 137622
12 | 30:34.73 | 2:50.25 | 137623 | 150397
13 | 33:25.23 | 3:06.44 | 150398 | 164391
14 | 36:31.67 | 2:28.12 | 164392 | 175503
15 | 39:00.04 | 2:12.13 | 175504 | 185416
16 | 41:12.17 | 2:52.37 | 185417 | 198353
17 | 44:04.54 | 2:09.43 | 198354 | 208071
18 | 46:14.22 | 3:00.74 | 208072 | 221645
19 | 49:15.21 | 2:39.52 | 221646 | 233622
20 | 51:54.73 | 2:47.53 | 233623 | 246200
21 | 54:42.51 | 3:28.00 | 246201 | 261800
22 | 58:10.51 | 2:53.23 | 261801 | 274798
23 | 61:03.74 | 2:57.51 | 274799 | 288124
24 | 64:01.50 | 3:56.23 | 288125 | 305847
25 | 67:57.73 | 2:41.46 | 305848 | 317968
26 | 70:39.44 | 2:21.21 | 317969 | 328564
27 | 73:00.65 | 2:06.16 | 328565 | 338030
Range status and errors
Selected range
Filename D:\My Rips\V.A. - Real Life Permanent Dreams A Cornucopia of British Psychedelia\V.A. - Real Life Permanent Dreams (Disc 3).wav
Peak level 98.8 %
Range quality 99.9 %
Copy CRC FA6199A3
Copy OK
No errors occurred
AccurateRip summary
Track 1 accurately ripped (confidence 3) [65B5A58B]
Track 2 accurately ripped (confidence 3) [1056FC08]
Track 3 accurately ripped (confidence 3) [34E9A69C]
Track 4 accurately ripped (confidence 3) [3BFD0654]
Track 5 accurately ripped (confidence 3) [8FC91046]
Track 6 accurately ripped (confidence 3) [D6CC35D1]
Track 7 accurately ripped (confidence 3) [E750216B]
Track 8 accurately ripped (confidence 3) [E75D9E93]
Track 9 accurately ripped (confidence 3) [65C6A6E4]
Track 10 accurately ripped (confidence 3) [F63A4ECD]
Track 11 accurately ripped (confidence 3) [9C3E7DD5]
Track 12 accurately ripped (confidence 3) [93D0A472]
Track 13 accurately ripped (confidence 3) [79F6239A]
Track 14 accurately ripped (confidence 3) [64D81FF4]
Track 15 accurately ripped (confidence 3) [FEA72905]
Track 16 accurately ripped (confidence 3) [688C38D7]
Track 17 accurately ripped (confidence 3) [F9A62BEA]
Track 18 accurately ripped (confidence 3) [7F48E7D5]
Track 19 accurately ripped (confidence 3) [997F0FA1]
Track 20 accurately ripped (confidence 3) [FBE4FE20]
Track 21 accurately ripped (confidence 3) [2457B51F]
Track 22 accurately ripped (confidence 3) [2B4345C6]
Track 23 accurately ripped (confidence 3) [D3BC5E4C]
Track 24 accurately ripped (confidence 3) [E64B47B9]
Track 25 accurately ripped (confidence 3) [4F17690F]
Track 26 accurately ripped (confidence 3) [69A39886]
Track 27 accurately ripped (confidence 3) [24199623]
All tracks accurately ripped

End of status report
Disc 4
Exact Audio Copy V0.99 prebeta 5 from 4. May 2009
EAC extraction logfile from 29. August 2009, 14:02
Various / Real Life Permanent Dreams Cd4 - Circus Days Are Here Again
Used drive : HL-DT-STDVDRRW GSA-2164D Adapter: 6 ID: 0

Read mode : Secure
Utilize accurate stream : Yes
Defeat audio cache : Yes
Make use of C2 pointers : No
Read offset correction : 102

Overread into Lead-In and Lead-Out : No
Fill up missing offset samples with silence : Yes
Delete leading and trailing silent blocks : No
Null samples used in CRC calculations : Yes
Used interface : Native Win32 interface for Win NT & 2000
Used output format : Internal WAV Routines
Sample format : 44.100 Hz; 16 Bit; Stereo
TOC of the extracted CD
Track | Start | Length | Start sector | End sector
---------------------------------------------------------
1 | 0:00.00 | 2:56.15 | 0 | 13214
2 | 2:56.15 | 2:47.43 | 13215 | 25782
3 | 5:43.58 | 2:22.69 | 25783 | 36501
4 | 8:06.52 | 3:04.60 | 36502 | 50361
5 | 11:11.37 | 2:45.64 | 50362 | 62800
6 | 13:57.26 | 3:20.17 | 62801 | 77817
7 | 17:17.43 | 4:34.19 | 77818 | 98386
8 | 21:51.62 | 4:24.74 | 98387 | 118260
9 | 26:16.61 | 2:25.51 | 118261 | 129186
10 | 28:42.37 | 3:00.22 | 129187 | 142708
11 | 31:42.59 | 3:32.28 | 142709 | 158636
12 | 35:15.12 | 3:34.24 | 158637 | 174710
13 | 38:49.36 | 4:44.51 | 174711 | 196061
14 | 43:34.12 | 3:44.22 | 196062 | 212883
15 | 47:18.34 | 2:56.47 | 212884 | 226130
16 | 50:15.06 | 7:28.65 | 226131 | 259795
17 | 57:43.71 | 2:59.31 | 259796 | 273251
18 | 60:43.27 | 4:16.64 | 273252 | 292515
19 | 65:00.16 | 3:45.22 | 292516 | 309412
20 | 68:45.38 | 9:21.36 | 309413 | 351523
Range status and errors
Selected range
Filename D:\My Rips\V.A. - Real Life Permanent Dreams A Cornucopia of British Psychedelia\V.A. - Real Life Permanent Dreams (Disc 4).wav
Peak level 98.8 %
Range quality 100.0 %
Copy CRC 56952DB0
Copy OK
No errors occurred
AccurateRip summary
Track 1 accurately ripped (confidence 3) [BBC90BB3]
Track 2 accurately ripped (confidence 3) [9C7D3C2E]
Track 3 accurately ripped (confidence 3) [7584A2FD]
Track 4 accurately ripped (confidence 3) [1395BC4D]
Track 5 accurately ripped (confidence 3) [8020A0A1]
Track 6 accurately ripped (confidence 3) [A8207FAF]
Track 7 accurately ripped (confidence 3) [D697D897]
Track 8 accurately ripped (confidence 3) [D9E5C10B]
Track 9 accurately ripped (confidence 3) [95A0E494]
Track 10 accurately ripped (confidence 3) [F475010C]
Track 11 accurately ripped (confidence 3) [83DE1426]
Track 12 accurately ripped (confidence 3) [FAA5C1E8]
Track 13 accurately ripped (confidence 3) [2C74944B]
Track 14 accurately ripped (confidence 3) [2CFBA90F]
Track 15 accurately ripped (confidence 3) [B5C743BC]
Track 16 accurately ripped (confidence 3) [22B96219]
Track 17 accurately ripped (confidence 3) [02265406]
Track 18 accurately ripped (confidence 3) [22709937]
Track 19 accurately ripped (confidence 3) [12F42045]
Track 20 accurately ripped (confidence 2) [F5CF33B4]
All tracks accurately ripped

End of status report
Спектры
Disc 1
Disc 2
Disc 3
Disc 4