(Euro-House, Trance) 2 Unlimited - Trance Remixes (Special Edition) - 2003, FLAC (image+.cue), lossless


Жанр: Techno/Electronic/Trance
Год выпуска диска: 2003
Производитель диска: EMI, Russia
Аудио кодек: FLAC
Тип рипа: image+.cue
Битрейт аудио: lossless
Продолжительность: 77:36
Трэклист:
1. No limit (Moon Project mix) 3:49
2. Twilight zone (PK hard trance) 3:19
3. Tribal dance (Tribal trance mix) 8:03
4. Maximum overdive (KG Hitman remix) 8:07
5. Get ready for this (Yves de Ruyter remix) 3:16
6. Let the beat control your body (Mistral remix) 7:31
7. Workaholic (K-Groove trance mix) 8:17
8. The real thing (Trance mix edit) 4:00
9. The magic friend (Black Jocker trance mix) 3:46
10. Maximum overdrive (Horny Horns vocal radio edit) 3:44
11. No limit (Push's trancendental rmx) 8:06
12. Twilight zone (PK hard trance remix) 8:10
13. Twilight zone (R-C extended club mix) 7:21
Отчёт EAC
Exact Audio Copy V0.99 prebeta 5 from 4. May 2009
Отчёт EAC об извлечении, выполненном 23. июля 2009, 18:51
2 Unlimited / Trance Remixes
Дисковод: ASUS DRW-2014L1T Adapter: 2 ID: 0
Режим чтения : Достоверность
Использование точного потока : Да
Отключение кэша аудио : Да
Использование указателей C2 : Нет
Коррекция смещения при чтении : 6
Способность читать области Lead-in и Lead-out : Нет
Заполнение пропущенных сэмплов тишиной : Да
Удаление блоков с тишиной в начале и конце : Нет
При вычислениях CRC использовались нулевые сэмплы : Да
Интерфейс : Установленный внешний ASPI-интерфейс
Выходной формат : Пользовательский кодировщик
Выбранный битрейт : 1024 kBit/s
Качество : Высокий
Добавление ID3-тэга : Нет
Утилита сжатия : C:\Program Files\Exact Audio Copy\FLAC\FLAC.EXE
Дополнительные параметры : -6 -V -T "ARTIST=%a" -T "TITLE=%t" -T "ALBUM=%g" -T "DATE=%y" -T "TRACKNUMBER=%n" -T "GENRE=%m" -T "COMMENT=%e" %s -o %d
TOC извлечённого CD
Трек | Старт | Длительность | Начальный сектор | Конечный сектор
---------------------------------------------------------------------
1 | 0:00.00 | 3:49.49 | 0 | 17223
2 | 3:49.49 | 3:19.03 | 17224 | 32151
3 | 7:08.52 | 8:03.29 | 32152 | 68405
4 | 15:12.06 | 8:07.59 | 68406 | 104989
5 | 23:19.65 | 3:16.61 | 104990 | 119750
6 | 26:36.51 | 7:31.45 | 119751 | 153620
7 | 34:08.21 | 8:17.30 | 153621 | 190925
8 | 42:25.51 | 4:00.11 | 190926 | 208936
9 | 46:25.62 | 3:46.56 | 208937 | 225942
10 | 50:12.43 | 3:44.21 | 225943 | 242763
11 | 53:56.64 | 8:06.12 | 242764 | 279225
12 | 62:03.01 | 8:10.40 | 279226 | 316015
13 | 70:13.41 | 7:21.19 | 316016 | 349109
Характеристики диапазона извлечения и сообщения об ошибках
Выбранный диапазон
Имя файла H:\TorrentFiles\2 Unlimited\2 Unlimited - Trance Remixes.wav
Пиковый уровень 99.8 %
Качество диапазона 100.0 %
CRC теста B26E0C4F
CRC копии B26E0C4F
Копирование... OK
Ошибок не произошло
AccurateRip: сводка
Трек 1 нет в базе данных
Трек 2 нет в базе данных
Трек 3 нет в базе данных
Трек 4 нет в базе данных
Трек 5 нет в базе данных
Трек 6 нет в базе данных
Трек 7 нет в базе данных
Трек 8 нет в базе данных
Трек 9 нет в базе данных
Трек 10 нет в базе данных
Трек 11 нет в базе данных
Трек 12 нет в базе данных
Трек 13 нет в базе данных
Ни одного трека нет в базе AccurateRip
Конец отчёта
TauAnalizer
Frequency Response