(Psychedelic) Soft Machine - Jet Propelled Photographs - 1972/1989, FLAC (tracks+.cue), lossless


Жанр: Psychedelic
Год выпуска диска: 1972/1989
Производитель диска: Decal, CD CHARLY 197, France
Аудио кодек: FLAC
Тип рипа: tracks+.cue
Битрейт аудио: lossless
Трэклист:
1. That's How Much I Need You Now
2. Save Yourself
3. I Should've Known
4. Jet Propelled Photographs
5. When I Don't Want You
6. Memories
7. You Don't Remember
8. She's Gone
9. I'd Rather Be With You
Лог создания рипа
Exact Audio Copy V0.99 prebeta 3 from 28. July 2007
EAC extraction logfile from 4. October 2008, 21:11
THE SOFT MACHINE / Jet_Propelled Photographs
Used drive : PIONEER DVD-RW DVR-112D Adapter: 2 ID: 0
Read mode : Secure
Utilize accurate stream : Yes
Defeat audio cache : Yes
Make use of C2 pointers : No
Read offset correction : 48
Overread into Lead-In and Lead-Out : No
Fill up missing offset samples with silence : Yes
Delete leading and trailing silent blocks : No
Null samples used in CRC calculations : Yes
Used interface : Native Win32 interface for Win NT & 2000
Gap handling : Appended to previous track
Used output format : User Defined Encoder
Selected bitrate : 896 kBit/s
Quality : High
Add ID3 tag : No
Command line compressor : C:\Program Files\Exact Audio Copy\FLAC\FLAC.EXE
Additional command line options : -V -8 -T "artist=%a" -T "title=%t" -T "album=%g" -T "date=%y" -T "tracknumber=%n" -T "genre=%m" %s
TOC of the extracted CD
Track | Start | Length | Start sector | End sector
---------------------------------------------------------
1 | 0:00.00 | 2:24.03 | 0 | 10802
2 | 2:24.03 | 2:41.19 | 10803 | 22896
3 | 5:05.22 | 7:26.42 | 22897 | 56388
4 | 12:31.64 | 2:30.34 | 56389 | 67672
5 | 15:02.23 | 2:46.36 | 67673 | 80158
6 | 17:48.59 | 2:55.62 | 80159 | 93345
7 | 20:44.46 | 3:43.03 | 93346 | 110073
8 | 24:27.49 | 2:09.29 | 110074 | 119777
9 | 26:37.03 | 3:38.49 | 119778 | 136176
Track 1
Filename E:\Z-POST\THE SOFT MACHINE - Jet-Propelled Photographs (EAC,log,cue,flac,scans)\01 - That's How Much I need You Now.wav
Pre-gap length 0:00:02.00
Peak level 88.6 %
Track quality 100.0 %
Test CRC F7B950AC
Copy CRC F7B950AC
Copy OK
Track 2
Filename E:\Z-POST\THE SOFT MACHINE - Jet-Propelled Photographs (EAC,log,cue,flac,scans)\02 - Save Yourself.wav
Peak level 88.3 %
Track quality 100.0 %
Test CRC 099759B9
Copy CRC 099759B9
Copy OK
Track 3
Filename E:\Z-POST\THE SOFT MACHINE - Jet-Propelled Photographs (EAC,log,cue,flac,scans)\03 - I Should've Known.wav
Peak level 88.1 %
Track quality 100.0 %
Test CRC 14D1AA88
Copy CRC 14D1AA88
Copy OK
Track 4
Filename E:\Z-POST\THE SOFT MACHINE - Jet-Propelled Photographs (EAC,log,cue,flac,scans)\04 - Jet Propelled Photograph (Aka Shooting the Moon).wav
Peak level 95.7 %
Track quality 100.0 %
Test CRC D252AAF6
Copy CRC D252AAF6
Copy OK
Track 5
Filename E:\Z-POST\THE SOFT MACHINE - Jet-Propelled Photographs (EAC,log,cue,flac,scans)\05 - When I Don't Want You.wav
Peak level 89.5 %
Track quality 100.0 %
Test CRC 6730E771
Copy CRC 6730E771
Copy OK
Track 6
Filename E:\Z-POST\THE SOFT MACHINE - Jet-Propelled Photographs (EAC,log,cue,flac,scans)\06 - Memories.wav
Peak level 89.0 %
Track quality 100.0 %
Test CRC 5470C10A
Copy CRC 5470C10A
Copy OK
Track 7
Filename E:\Z-POST\THE SOFT MACHINE - Jet-Propelled Photographs (EAC,log,cue,flac,scans)\07 - You Don't Remember.wav
Peak level 90.1 %
Track quality 100.0 %
Test CRC 6D86F520
Copy CRC 6D86F520
Copy OK
Track 8
Filename E:\Z-POST\THE SOFT MACHINE - Jet-Propelled Photographs (EAC,log,cue,flac,scans)\08 - She's Gone.wav
Peak level 88.6 %
Track quality 100.0 %
Test CRC B578FFB4
Copy CRC B578FFB4
Copy OK
Track 9
Filename E:\Z-POST\THE SOFT MACHINE - Jet-Propelled Photographs (EAC,log,cue,flac,scans)\09 - I'd Rather Be With You.wav
Peak level 89.0 %
Track quality 100.0 %
Test CRC 99D40386
Copy CRC 99D40386
Copy OK
No errors occurred
End of status report
Содержание индексной карты (.CUE)
REM GENRE "Progressive Rock"
REM DATE 1989
REM DISCID 74071709
REM COMMENT "ExactAudioCopy v0.99pb3"
PERFORMER "THE SOFT MACHINE"
TITLE "Jet_Propelled Photographs"
FILE "01 - That's How Much I need You Now.wav" WAVE
TRACK 01 AUDIO
TITLE "That's How Much I need You Now"
PERFORMER "THE SOFT MACHINE"
INDEX 01 00:00:00
FILE "02 - Save Yourself.wav" WAVE
TRACK 02 AUDIO
TITLE "Save Yourself"
PERFORMER "THE SOFT MACHINE"
INDEX 01 00:00:00
FILE "03 - I Should've Known.wav" WAVE
TRACK 03 AUDIO
TITLE "I Should've Known"
PERFORMER "THE SOFT MACHINE"
INDEX 01 00:00:00
FILE "04 - Jet Propelled Photograph (Aka Shooting the Moon).wav" WAVE
TRACK 04 AUDIO
TITLE "Jet Propelled Photograph (Aka Shooting the Moon)"
PERFORMER "THE SOFT MACHINE"
INDEX 01 00:00:00
FILE "05 - When I Don't Want You.wav" WAVE
TRACK 05 AUDIO
TITLE "When I Don't Want You"
PERFORMER "THE SOFT MACHINE"
INDEX 01 00:00:00
FILE "06 - Memories.wav" WAVE
TRACK 06 AUDIO
TITLE "Memories"
PERFORMER "THE SOFT MACHINE"
INDEX 01 00:00:00
FILE "07 - You Don't Remember.wav" WAVE
TRACK 07 AUDIO
TITLE "You Don't Remember"
PERFORMER "THE SOFT MACHINE"
INDEX 01 00:00:00
FILE "08 - She's Gone.wav" WAVE
TRACK 08 AUDIO
TITLE "She's Gone"
PERFORMER "THE SOFT MACHINE"
INDEX 01 00:00:00
FILE "09 - I'd Rather Be With You.wav" WAVE
TRACK 09 AUDIO
TITLE "I'd Rather Be With You"
PERFORMER "THE SOFT MACHINE"
INDEX 01 00:00:00