(Alternative, Pop-Rock) Sinéad (Sinead) O'Connor - Discography (14 изданий) (1987-2007), lossless

1987 - The Lion and the Cobra
Год выпуска: 1987
Продолжительность: 0:42:21
Формат: FLAC (tracks + .cue)
Трэклист:
01. Jackie (2:29)
02. Mandinka (3:47)
03. Jerusalem (4:20)
04. Just Like U Said It Would B (4:32)
05. Never Get Old (4:37)
06. Troy (6:35)
07. I Want Your (Hands On Me) (4:42)
08. Drink Before The War (5:25)
09. Just Call Me Joe (5:54)
Отчет EAC:
Exact Audio Copy V0.99 prebeta 3 from 28. July 2007
EAC extraction logfile from 5. December 2007, 16:30
O'Connor, Sinйad / The Lion And The Cobra
Used drive : ASUS DRW-1608P3S Adapter: 0 ID: 2
Read mode : Secure
Utilize accurate stream : Yes
Defeat audio cache : Yes
Make use of C2 pointers : No
Read offset correction : 48
Overread into Lead-In and Lead-Out : No
Fill up missing offset samples with silence : Yes
Delete leading and trailing silent blocks : No
Null samples used in CRC calculations : No
Used interface : Native Win32 interface for Win NT & 2000
Gap handling : Appended to previous track
Used output format : User Defined Encoder
Selected bitrate : 192 kBit/s
Quality : High
Add ID3 tag : No
Command line compressor : C:\Program Files\Exact Audio Copy\FLAC\FLAC.EXE
Additional command line options : -6 -V -T "ARTIST=%a" -T "TITLE=%t" -T "ALBUM=%g" -T "DATE=%y" -T "TRACKNUMBER=%n" -T "GENRE=%m" -T "COMMENT=%e" %s -o %d
TOC of the extracted CD
Track | Start | Length | Start sector | End sector
---------------------------------------------------------
1 | 0:00.00 | 2:29.23 | 0 | 11197
2 | 2:29.23 | 3:46.40 | 11198 | 28187
3 | 6:15.63 | 4:20.27 | 28188 | 47714
4 | 10:36.15 | 4:32.33 | 47715 | 68147
5 | 15:08.48 | 4:36.45 | 68148 | 88892
6 | 19:45.18 | 6:34.50 | 88893 | 118492
7 | 26:19.68 | 4:42.35 | 118493 | 139677
8 | 31:02.28 | 5:25.32 | 139678 | 164084
9 | 36:27.60 | 5:53.55 | 164085 | 190614
Track 1
Filename C:\Documents and Settings\me\My Documents\bt uploads\Sinead O'Connor The Lion and the Cobra\Jackie.wav
Pre-gap length 0:00:02.00
Peak level 47.0 %
Track quality 100.0 %
Test CRC 67E7F0F4
Copy CRC 67E7F0F4
Accurately ripped (confidence 21) [0A13FFDD]
Copy OK
Track 2
Filename C:\Documents and Settings\me\My Documents\bt uploads\Sinead O'Connor The Lion and the Cobra\Mandinka.wav
Peak level 71.3 %
Track quality 100.0 %
Test CRC 80655012
Copy CRC 80655012
Accurately ripped (confidence 22) [372B32F0]
Copy OK
Track 3
Filename C:\Documents and Settings\me\My Documents\bt uploads\Sinead O'Connor The Lion and the Cobra\Jerusalem.wav
Peak level 44.5 %
Track quality 100.0 %
Test CRC D1A1B7F1
Copy CRC D1A1B7F1
Accurately ripped (confidence 22) [57035620]
Copy OK
Track 4
Filename C:\Documents and Settings\me\My Documents\bt uploads\Sinead O'Connor The Lion and the Cobra\Just Like U Said It Would B.wav
Peak level 77.2 %
Track quality 100.0 %
Test CRC 40D5CEE2
Copy CRC 40D5CEE2
Accurately ripped (confidence 21) [0852C079]
Copy OK
Track 5
Filename C:\Documents and Settings\me\My Documents\bt uploads\Sinead O'Connor The Lion and the Cobra\Never Get Old.wav
Pre-gap length 0:00:00.03
Peak level 41.1 %
Track quality 99.9 %
Test CRC 6E3F0096
Copy CRC 6E3F0096
Accurately ripped (confidence 21) [9019CF59]
Copy OK
Track 6
Filename C:\Documents and Settings\me\My Documents\bt uploads\Sinead O'Connor The Lion and the Cobra\Troy.wav
Peak level 45.2 %
Track quality 100.0 %
Test CRC BFDA3156
Copy CRC BFDA3156
Accurately ripped (confidence 21) [7877A136]
Copy OK
Track 7
Filename C:\Documents and Settings\me\My Documents\bt uploads\Sinead O'Connor The Lion and the Cobra\I Want Your (Hands On Me).wav
Pre-gap length 0:00:00.02
Peak level 72.1 %
Track quality 100.0 %
Test CRC 9DD83B24
Copy CRC 9DD83B24
Accurately ripped (confidence 22) [80CC25EF]
Copy OK
Track 8
Filename C:\Documents and Settings\me\My Documents\bt uploads\Sinead O'Connor The Lion and the Cobra\Drink Before The War.wav
Peak level 43.4 %
Track quality 99.9 %
Test CRC CBFB0D3A
Copy CRC CBFB0D3A
Accurately ripped (confidence 21) [D395BDC4]
Copy OK
Track 9
Filename C:\Documents and Settings\me\My Documents\bt uploads\Sinead O'Connor The Lion and the Cobra\Just Call Me Joe.wav
Peak level 50.4 %
Track quality 100.0 %
Test CRC CD7337C5
Copy CRC CD7337C5
Accurately ripped (confidence 22) [9AB233C5]
Copy OK
All tracks accurately ripped
No errors occurred
End of status report
Доп. информация:
Источник - другой трекер. Сканов нет. Релизер - qazzzz.
1990 - I Do Not Want What I Haven't Got
Год выпуска: 1990
Продолжительность: 0:51:10
Формат: FLAC (tracks + .cue)
Трэклист:
01. Feel So Different (6:47)
02. I Am Stretched On Your Grave (5:33)
03. Three Babies (4:47)
04. The Emperor's New Clothes (5:16)
05. Black Boys On Mopeds (3:53)
06. Nothing Compares 2 U (5:11)
07. Jump In The River (4:13)
08. You Cause As Much Sorrow (5:05)
09. The Last Day Of Our Acquaintance (4:40)
10. I Do Not Want What I Haven't Got (5:45)
Отчет EAC:
Exact Audio Copy V0.99 prebeta 3 from 28. July 2007
EAC extraction logfile from 17. April 2009, 3:05
Sinead O'Connor / I Do Not Want What I Haven't Got
Used drive : BENQ DVD DD DW1640 Adapter: 2 ID: 0
Read mode : Secure
Utilize accurate stream : Yes
Defeat audio cache : Yes
Make use of C2 pointers : No
Read offset correction : 618
Overread into Lead-In and Lead-Out : No
Fill up missing offset samples with silence : Yes
Delete leading and trailing silent blocks : No
Null samples used in CRC calculations : Yes
Used interface : Installed external ASPI interface
Gap handling : Appended to previous track
Used output format : User Defined Encoder
Selected bitrate : 320 kBit/s
Quality : High
Add ID3 tag : No
Command line compressor : D:\Distributive\AudioVideo\Codecs\flac\flac.exe
Additional command line options : -V -8 -T "artist=%a" -T "title=%t" -T "album=%g" -T "date=%y" -T "tracknumber=%n" -T "genre=%m" %s
TOC of the extracted CD
Track | Start | Length | Start sector | End sector
---------------------------------------------------------
1 | 0:00.00 | 6:47.00 | 0 | 30524
2 | 6:47.00 | 5:33.35 | 30525 | 55534
3 | 12:20.35 | 4:47.00 | 55535 | 77059
4 | 17:07.35 | 5:16.17 | 77060 | 100776
5 | 22:23.52 | 3:53.03 | 100777 | 118254
6 | 26:16.55 | 5:10.62 | 118255 | 141566
7 | 31:27.42 | 4:12.65 | 141567 | 160531
8 | 35:40.32 | 5:04.73 | 160532 | 183404
9 | 40:45.30 | 4:40.30 | 183405 | 204434
10 | 45:25.60 | 5:45.07 | 204435 | 230316
Track 1
Filename G:\Temp\01 - Feel So Different.wav
Pre-gap length 0:00:02.00
Peak level 69.8 %
Track quality 100.0 %
Test CRC 91669F3D
Copy CRC 91669F3D
Accurately ripped (confidence 10) [B174EDC4]
Copy OK
Track 2
Filename G:\Temp\02 - I Am Stretched On Your Grave.wav
Peak level 93.2 %
Track quality 100.0 %
Test CRC 179EBAC6
Copy CRC 179EBAC6
Accurately ripped (confidence 11) [4FD15E18]
Copy OK
Track 3
Filename G:\Temp\03 - Three Babies.wav
Peak level 67.5 %
Track quality 100.0 %
Test CRC ADE924C8
Copy CRC ADE924C8
Accurately ripped (confidence 11) [AF70EE69]
Copy OK
Track 4
Filename G:\Temp\04 - The Emperor's New Clothes.wav
Peak level 88.3 %
Track quality 100.0 %
Test CRC 075AF173
Copy CRC 075AF173
Accurately ripped (confidence 11) [E394711B]
Copy OK
Track 5
Filename G:\Temp\05 - Black Boys On Mopeds.wav
Peak level 75.1 %
Track quality 100.0 %
Test CRC 307E4A3C
Copy CRC 307E4A3C
Accurately ripped (confidence 11) [46E0DF65]
Copy OK
Track 6
Filename G:\Temp\06 - Nothing Compares 2 U.wav
Peak level 78.9 %
Track quality 99.9 %
Test CRC C472900A
Copy CRC C472900A
Accurately ripped (confidence 11) [B2CB99A4]
Copy OK
Track 7
Filename G:\Temp\07 - Jump In The River.wav
Peak level 88.9 %
Track quality 100.0 %
Test CRC 60D90978
Copy CRC 60D90978
Accurately ripped (confidence 10) [52490BEC]
Copy OK
Track 8
Filename G:\Temp\08 - You Cause As Much Sorrow.wav
Peak level 75.1 %
Track quality 100.0 %
Test CRC 1E51CAAB
Copy CRC 1E51CAAB
Accurately ripped (confidence 8) [26DCE433]
Copy OK
Track 9
Filename G:\Temp\09 - The Last Day Of Our Acquaintance.wav
Peak level 100.0 %
Track quality 100.0 %
Test CRC 9FF6A75E
Copy CRC 9FF6A75E
Accurately ripped (confidence 10) [C0B76DF7]
Copy OK
Track 10
Filename G:\Temp\10 - I Do Not Want What I Haven't Got.wav
Peak level 52.5 %
Track quality 100.0 %
Test CRC F865E88D
Copy CRC F865E88D
Accurately ripped (confidence 10) [0CD04BA5]
Copy OK
All tracks accurately ripped
No errors occurred
End of status report
Доп. информация:
Источник - фирменный диск из личной коллекции.
1992 - Am I Not Your Girl?
Год выпуска: 1992
Продолжительность: 0:47:51
Формат: FLAC (tracks + .cue)
Трэклист:
01. Why Don't You Do Right (2:31)
02. Bewitched, Bothered And Bewildered (6:15)
03. Secret Love (2:57)
04. Black Coffee (3:21)
05. Success Has Made A Failure Of Our Home (4:29)
06. Don't Cry For Me Argentina (5:37)
07. I Want To Be Loved By You (2:45)
08. Gloomy Sunday (3:56)
09. Love Letters (3:07)
10. How Insensitive (3:28)
11. Scarlet Ribbons (4:15)
12. Don't Cry For Me Argentina (Instrumental) (5:10)
Отчет EAC:
Exact Audio Copy V0.99 prebeta 3 from 28. July 2007
EAC extraction logfile from 1. March 2009, 14:42
Sinйad O'Connor / Am I Not Your Girl?
Used drive : HL-DT-STDVD-RAM GSA-H20N Adapter: 3 ID: 0
Read mode : Secure
Utilize accurate stream : Yes
Defeat audio cache : Yes
Make use of C2 pointers : No
Read offset correction : 102
Overread into Lead-In and Lead-Out : No
Fill up missing offset samples with silence : Yes
Delete leading and trailing silent blocks : No
Null samples used in CRC calculations : Yes
Used interface : Installed external ASPI interface
Gap handling : Appended to previous track
Used output format : Internal WAV Routines
Sample format : 44.100 Hz; 16 Bit; Stereo
TOC of the extracted CD
Track | Start | Length | Start sector | End sector
---------------------------------------------------------
1 | 0:00.33 | 2:31.07 | 33 | 11364
2 | 2:31.40 | 6:15.20 | 11365 | 39509
3 | 8:46.60 | 2:56.45 | 39510 | 52754
4 | 11:43.30 | 3:21.05 | 52755 | 67834
5 | 15:04.35 | 4:29.25 | 67835 | 88034
6 | 19:33.60 | 5:37.23 | 88035 | 113332
7 | 25:11.08 | 2:45.02 | 113333 | 125709
8 | 27:56.10 | 3:56.05 | 125710 | 143414
9 | 31:52.15 | 3:06.73 | 143415 | 157437
10 | 34:59.13 | 3:28.27 | 157438 | 173064
11 | 38:27.40 | 4:14.53 | 173065 | 192167
12 | 42:42.18 | 5:09.50 | 192168 | 215392
Track 1
Filename C:\Documents and Settings\Desktop\EAC\ Sinйad O'Connor\Am I Not Your Girl\01 - Why Don't You Do Right .wav
Pre-gap length 0:00:02.33
Peak level 99.9 %
Track quality 99.9 %
Test CRC D4D9A3B4
Copy CRC D4D9A3B4
Accurately ripped (confidence 43) [19826CD6]
Copy OK
Track 2
Filename C:\Documents and Settings\Desktop\EAC\ Sinйad O'Connor\Am I Not Your Girl\02 - Bewitched, Bothered And Bewildered.wav
Pre-gap length 0:00:00.22
Peak level 73.0 %
Track quality 100.0 %
Test CRC 8EE2CC4B
Copy CRC 8EE2CC4B
Accurately ripped (confidence 43) [5874C664]
Copy OK
Track 3
Filename C:\Documents and Settings\Desktop\EAC\ Sinйad O'Connor\Am I Not Your Girl\03 - Secret Love.wav
Pre-gap length 0:00:00.02
Peak level 99.9 %
Track quality 100.0 %
Test CRC BA8F5D54
Copy CRC BA8F5D54
Accurately ripped (confidence 44) [DD78BE37]
Copy OK
Track 4
Filename C:\Documents and Settings\Desktop\EAC\ Sinйad O'Connor\Am I Not Your Girl\04 - Black Coffee.wav
Pre-gap length 0:00:00.57
Peak level 69.6 %
Track quality 100.0 %
Test CRC 22837D69
Copy CRC 22837D69
Accurately ripped (confidence 44) [B0991427]
Copy OK
Track 5
Filename C:\Documents and Settings\Desktop\EAC\ Sinйad O'Connor\Am I Not Your Girl\05 - Success Has Made A Failure Of Our Home.wav
Pre-gap length 0:00:00.05
Peak level 100.0 %
Track quality 100.0 %
Test CRC 28F79504
Copy CRC 28F79504
Accurately ripped (confidence 43) [D088D8DF]
Copy OK
Track 6
Filename C:\Documents and Settings\Desktop\EAC\ Sinйad O'Connor\Am I Not Your Girl\06 - Don't Cry For Me Argentina.wav
Pre-gap length 0:00:01.27
Peak level 76.0 %
Track quality 100.0 %
Test CRC FCE67ABA
Copy CRC FCE67ABA
Accurately ripped (confidence 44) [0578352F]
Copy OK
Track 7
Filename C:\Documents and Settings\Desktop\EAC\ Sinйad O'Connor\Am I Not Your Girl\07 - I Want To Be Loved By You.wav
Pre-gap length 0:00:01.48
Peak level 99.9 %
Track quality 99.9 %
Test CRC 22A04401
Copy CRC 22A04401
Accurately ripped (confidence 44) [7C634F78]
Copy OK
Track 8
Filename C:\Documents and Settings\Desktop\EAC\ Sinйad O'Connor\Am I Not Your Girl\08 - Gloomy Sunday.wav
Pre-gap length 0:00:00.20
Peak level 52.5 %
Track quality 100.0 %
Test CRC 2B14A3EF
Copy CRC 2B14A3EF
Accurately ripped (confidence 45) [D2655BC8]
Copy OK
Track 9
Filename C:\Documents and Settings\Desktop\EAC\ Sinйad O'Connor\Am I Not Your Girl\09 - Love Letters.wav
Pre-gap length 0:00:01.35
Peak level 99.9 %
Track quality 99.9 %
Test CRC F76B1009
Copy CRC F76B1009
Accurately ripped (confidence 44) [4F60CFF1]
Copy OK
Track 10
Filename C:\Documents and Settings\Desktop\EAC\ Sinйad O'Connor\Am I Not Your Girl\10 - How Insensitive.wav
Pre-gap length 0:00:01.23
Peak level 71.9 %
Track quality 100.0 %
Test CRC 8E48DDE9
Copy CRC 8E48DDE9
Accurately ripped (confidence 43) [5D39E9E9]
Copy OK
Track 11
Filename C:\Documents and Settings\Desktop\EAC\ Sinйad O'Connor\Am I Not Your Girl\11 - Scarlet Ribbons.wav
Pre-gap length 0:00:01.70
Peak level 51.2 %
Track quality 99.9 %
Test CRC 4B07AFBF
Copy CRC 4B07AFBF
Accurately ripped (confidence 43) [11E93662]
Copy OK
Track 12
Filename C:\Documents and Settings\Desktop\EAC\ Sinйad O'Connor\Am I Not Your Girl\12 - Don't Cry For Me Argentina (Instrumental).wav
Pre-gap length 0:00:01.28
Peak level 99.9 %
Track quality 100.0 %
Test CRC 2715DF6C
Copy CRC 2715DF6C
Accurately ripped (confidence 40) [115EEC6B]
Copy OK
All tracks accurately ripped
No errors occurred
End of status report
Доп. информация:
Источник - другой трекер. Релизер - andipandi.
1994 - Fire On Babylon (EP)
Год выпуска: 1994
Продолжительность: 0:20:09
Формат: FLAC (tracks + .cue)
Трэклист:
01. Fire On Babylon (5:11)
02. I Believe In You (5:41)
03. House of the Rising Son (5:09)
04. Streets of London (4:09)
EAC log
Exact Audio Copy V0.99 prebeta 4 from 23. January 2008
EAC extraction logfile from 17. March 2009, 22:53
Sinead O'Connor / Fire On Babylon
Used drive : LITE-ON DVDRW SHW-160P6S Adapter: 0 ID: 0
Read mode : Secure
Utilize accurate stream : Yes
Defeat audio cache : Yes
Make use of C2 pointers : No
Read offset correction : 6
Overread into Lead-In and Lead-Out : No
Fill up missing offset samples with silence : Yes
Delete leading and trailing silent blocks : No
Null samples used in CRC calculations : Yes
Used interface : Native Win32 interface for Win NT & 2000
Gap handling : Appended to previous track
Used output format : User Defined Encoder
Selected bitrate : 768 kBit/s
Quality : High
Add ID3 tag : No
Command line compressor : C:\Program Files (x86)\FLAC\flac.exe
Additional command line options : -V -8 -T "artist=%a" -T "title=%t" -T "album=%g" -T "date=%y" -T "tracknumber=%n" -T "genre=%m" %s
TOC of the extracted CD
Track | Start | Length | Start sector | End sector
---------------------------------------------------------
1 | 0:00.00 | 5:11.05 | 0 | 23329
2 | 5:11.05 | 5:40.45 | 23330 | 48874
3 | 10:51.50 | 5:08.60 | 48875 | 72034
4 | 16:00.35 | 4:09.20 | 72035 | 90729
Track 1
Filename C:\Music\Fire On Babylon\01 Fire On Babylon.wav
Pre-gap length 0:00:02.00
Peak level 99.9 %
Track quality 100.0 %
Test CRC 1871B2D4
Copy CRC 1871B2D4
Accurately ripped (confidence 2) [21B67F07]
Copy OK
Track 2
Filename C:\Music\Fire On Babylon\02 I Believe In You.wav
Pre-gap length 0:00:00.50
Peak level 97.6 %
Track quality 100.0 %
Test CRC 55C62D82
Copy CRC 55C62D82
Accurately ripped (confidence 2) [6D2F4859]
Copy OK
Track 3
Filename C:\Music\Fire On Babylon\03 House of the Rising Son.wav
Pre-gap length 0:00:02.70
Peak level 99.5 %
Track quality 99.9 %
Test CRC 77C58DA3
Copy CRC 77C58DA3
Accurately ripped (confidence 2) [76448773]
Copy OK
Track 4
Filename C:\Music\Fire On Babylon\04 Streets of London.wav
Pre-gap length 0:00:02.20
Peak level 99.6 %
Track quality 100.0 %
Test CRC 203FD39A
Copy CRC 203FD39A
Accurately ripped (confidence 2) [9E60294A]
Copy OK
All tracks accurately ripped
No errors occurred
End of status report
.cue
REM GENRE Alternative
REM DATE 1994
REM DISCID 2804B904
REM COMMENT "ExactAudioCopy v0.99pb4"
CATALOG 0401035262181
PERFORMER "Sinead O'Connor"
TITLE "Fire On Babylon"
FILE "Fire On Babylon\01 Fire On Babylon.wav" WAVE
TRACK 01 AUDIO
TITLE "Fire On Babylon"
PERFORMER "Sinead O'Connor"
INDEX 01 00:00:00
TRACK 02 AUDIO
TITLE "I Believe In You"
PERFORMER "Sinead O'Connor"
INDEX 00 05:10:42
FILE "Fire On Babylon\02 I Believe In You.wav" WAVE
INDEX 01 00:00:00
TRACK 03 AUDIO
TITLE "House of the Rising Son"
PERFORMER "Sinead O'Connor"
INDEX 00 05:37:67
FILE "Fire On Babylon\03 House of the Rising Son.wav" WAVE
INDEX 01 00:00:00
TRACK 04 AUDIO
TITLE "Streets of London"
PERFORMER "Sinead O'Connor"
INDEX 00 05:06:45
FILE "Fire On Babylon\04 Streets of London.wav" WAVE
INDEX 01 00:00:00
Доп. информация:
Источник - другой трекер. Сканов нет. Релизер - blvillain.
1994 - Universal Mother
Год выпуска: 1994
Продолжительность: 0:50:10
Формат: APE (image + .cue)
Трэклист:
01. Germaine (0:38)
02. Fire on Babylon (5:12)
03. John, I Love You (5:32)
04. My Darling Child (3:09)
05. Am I a Human? (0:24)
06. Red Football (2:48)
07. All Apologies (2:38)
08. A Perfect Indian (4:23)
09. Scorn Not His Simplicity (4:27)
10. All Babies (4:30)
11. In This Heart (3:11)
12. Tiny Grief Song (1:56)
13. Famine (4:57)
14. Thank You for Hearing Me (6:26)
Отчет EAC:
Exact Audio Copy V0.99 prebeta 4 from 23. January 2008
EAC extraction logfile from 21. October 2008, 13:00
Sinead O'Connor / Universal Mother
Used drive : ASUS DRW-1814BLT Adapter: 3 ID: 0
Read mode : Secure
Utilize accurate stream : Yes
Defeat audio cache : Yes
Make use of C2 pointers : No
Read offset correction : 6
Overread into Lead-In and Lead-Out : No
Fill up missing offset samples with silence : Yes
Delete leading and trailing silent blocks : No
Null samples used in CRC calculations : Yes
Used interface : Native Win32 interface for Win NT & 2000
Used output format : Monkey's Audio Lossless Encoder v3.99 DLL
Sample format : High Lossless Compression
TOC of the extracted CD
Track | Start | Length | Start sector | End sector
---------------------------------------------------------
1 | 0:00.00 | 0:38.12 | 0 | 2861
2 | 0:38.12 | 5:11.68 | 2862 | 26254
3 | 5:50.05 | 5:31.57 | 26255 | 51136
4 | 11:21.62 | 3:09.33 | 51137 | 65344
5 | 14:31.20 | 0:24.07 | 65345 | 67151
6 | 14:55.27 | 2:48.30 | 67152 | 79781
7 | 17:43.57 | 2:37.55 | 79782 | 91611
8 | 20:21.37 | 4:22.40 | 91612 | 111301
9 | 24:44.02 | 4:26.43 | 111302 | 131294
10 | 29:10.45 | 4:29.45 | 131295 | 151514
11 | 33:40.15 | 3:11.15 | 151515 | 165854
12 | 36:51.30 | 1:56.10 | 165855 | 174564
13 | 38:47.40 | 4:56.55 | 174565 | 196819
14 | 43:44.20 | 6:25.72 | 196820 | 225766
Range status and errors
Selected range
Filename G:\!!!!!!!!MINE\Sinead O'Connor - Universal Mother(7243 8 30549 2 3) - 1994 - Ensign\Sinead O'Connor - Universal Mother.ape
Peak level 100.0 %
Range quality 100.0 %
Copy CRC E0EB6AF8
Copy OK
No errors occurred
AccurateRip summary
Track 1 accurately ripped (confidence 48) [B463C37E]
Track 2 accurately ripped (confidence 47) [17D199DA]
Track 3 accurately ripped (confidence 47) [DB834398]
Track 4 accurately ripped (confidence 47) [0ECF6D14]
Track 5 accurately ripped (confidence 46) [9FECEADB]
Track 6 accurately ripped (confidence 46) [3FE9CF64]
Track 7 accurately ripped (confidence 46) [E8FB3DC9]
Track 8 accurately ripped (confidence 45) [DC50A4E8]
Track 9 accurately ripped (confidence 45) [1CB40133]
Track 10 accurately ripped (confidence 45) [0BADA4F1]
Track 11 accurately ripped (confidence 45) [E1CAA0B6]
Track 12 accurately ripped (confidence 45) [2BE4C7A3]
Track 13 accurately ripped (confidence 45) [D374AD68]
Track 14 accurately ripped (confidence 45) [7451B394]
All tracks accurately ripped
End of status report
Доп. информация:
Источник и релизер забыты. Сканов нет.
1997 - Gospel Oak
Год выпуска: 1997
Продолжительность: 0:22:37
Формат: FLAC (tracks + .cue)
Трэклист:
01. This Is To Mother You (3:13)
02. I Am Enough For Myself (4:07)
03. Petit Poulet (3:45)
04. 4 My Love (4:06)
05. This Is A Rebel Song (3:03)
06. He Moved Through the Fair (4:23)
Отчет XLD:
X Lossless Decoder version 20090320 (105.1)
XLD extraction logfile from 2009-07-08 14:28:30 -0300
SinГ©ad O'Connor / Gospel Oak
Used drive : MATSHITA DVD-R UJ-857E (revision ZB0E)
Use cdparanoia mode : YES (CDParanoia III 10.2 engine)
Disable audio cache : OK for the drive with cache less than 2750KB
Make use of C2 pointers : NO
Read offset correction : 102
Max retry count : 100
TOC of the extracted CD
Track | Start | Length | Start sector | End sector
---------------------------------------------------------
1 | 00:00:00 | 03:13:25 | 0 | 14499
2 | 03:13:25 | 04:07:17 | 14500 | 33041
3 | 07:20:42 | 03:44:63 | 33042 | 49904
4 | 11:05:30 | 04:06:05 | 49905 | 68359
5 | 15:11:35 | 03:03:10 | 68360 | 82094
6 | 18:14:45 | 04:22:70 | 82095 | 101814
Track 01
Filename : /Users/Aiden/Desktop/Sinead O'Connor - 1997 - Gospel Oak/01 - This Is To Mother You.flac
CRC32 hash (test run) : 03DFDBAE
CRC32 hash : 03DFDBAE
CRC32 hash (skip zero) : 42CB69C1
AccurateRip signature : DE58C286
->Accurately ripped! (confidence 4)
Statistics
Read error : 0
Skipped (treated as error) : 0
Edge jitter error (maybe fixed) : 0
Atom jitter error (maybe fixed) : 0
Drift error (maybe fixed) : 0
Dropped bytes error (maybe fixed) : 0
Duplicated bytes error (maybe fixed) : 0
Inconsistency in error sectors : 0
Track 02
Filename : /Users/Aiden/Desktop/Sinead O'Connor - 1997 - Gospel Oak/02 - I Am Enough For Myself.flac
CRC32 hash (test run) : 66945443
CRC32 hash : 66945443
CRC32 hash (skip zero) : E8C9A6E6
AccurateRip signature : CA294AD4
->Accurately ripped! (confidence 3)
Statistics
Read error : 0
Skipped (treated as error) : 0
Edge jitter error (maybe fixed) : 0
Atom jitter error (maybe fixed) : 0
Drift error (maybe fixed) : 0
Dropped bytes error (maybe fixed) : 0
Duplicated bytes error (maybe fixed) : 0
Inconsistency in error sectors : 0
Track 03
Filename : /Users/Aiden/Desktop/Sinead O'Connor - 1997 - Gospel Oak/03 - Petit Poulet.flac
CRC32 hash (test run) : 1A189EB7
CRC32 hash : 1A189EB7
CRC32 hash (skip zero) : F517AFC6
AccurateRip signature : 478715F5
->Accurately ripped! (confidence 3)
Statistics
Read error : 0
Skipped (treated as error) : 0
Edge jitter error (maybe fixed) : 0
Atom jitter error (maybe fixed) : 0
Drift error (maybe fixed) : 0
Dropped bytes error (maybe fixed) : 0
Duplicated bytes error (maybe fixed) : 0
Inconsistency in error sectors : 0
Track 04
Filename : /Users/Aiden/Desktop/Sinead O'Connor - 1997 - Gospel Oak/04 - 4 My Love.flac
CRC32 hash (test run) : 61C9D71F
CRC32 hash : 61C9D71F
CRC32 hash (skip zero) : 0F4DC0CB
AccurateRip signature : 37AA9D36
->Accurately ripped! (confidence 3)
Statistics
Read error : 0
Skipped (treated as error) : 0
Edge jitter error (maybe fixed) : 0
Atom jitter error (maybe fixed) : 0
Drift error (maybe fixed) : 0
Dropped bytes error (maybe fixed) : 0
Duplicated bytes error (maybe fixed) : 0
Inconsistency in error sectors : 0
Track 05
Filename : /Users/Aiden/Desktop/Sinead O'Connor - 1997 - Gospel Oak/05 - This Is A Rebel Song.flac
CRC32 hash (test run) : E8319B3F
CRC32 hash : E8319B3F
CRC32 hash (skip zero) : DB55F44D
AccurateRip signature : F8256531
->Accurately ripped! (confidence 4)
Statistics
Read error : 0
Skipped (treated as error) : 0
Edge jitter error (maybe fixed) : 0
Atom jitter error (maybe fixed) : 0
Drift error (maybe fixed) : 0
Dropped bytes error (maybe fixed) : 0
Duplicated bytes error (maybe fixed) : 0
Inconsistency in error sectors : 0
Track 06
Filename : /Users/Aiden/Desktop/Sinead O'Connor - 1997 - Gospel Oak/06 - He Moved Through the Fair.flac
CRC32 hash (test run) : A7F6CB6E
CRC32 hash : A7F6CB6E
CRC32 hash (skip zero) : 6504BC9E
AccurateRip signature : 0C5D0EB6
->Accurately ripped! (confidence 4)
Statistics
Read error : 0
Skipped (treated as error) : 0
Edge jitter error (maybe fixed) : 0
Atom jitter error (maybe fixed) : 0
Drift error (maybe fixed) : 0
Dropped bytes error (maybe fixed) : 0
Duplicated bytes error (maybe fixed) : 0
Inconsistency in error sectors : 0
No errors occurred
End of status report
Доп. информация:
Источник - другой трекер. Сканов нет. Релизер - SolomonGrundy.
1997 - So Far... the Best of Sinead O'Connor
Год выпуска: 1997
Продолжительность: 1:17:56
Формат: FLAC (tracks + .cue)
Трэклист:
01. Nothing Compares 2 U (5:11)
02. Mandinka (3:49)
03. The Emperor's New Clothes (5:17)
04. The Last Day Of Our Acquaintance (4:40)
05. Fire On Babylon (5:10)
06. Troy (6:33)
07. I Am Stretched On Your Grave (5:35)
08. Success Has Made A Failure Of Our Home (4:29)
09. John I Love You (5:49)
10. Empire - Bomb The Bass (5:51)
11. I Want Your (Hands On Me) (4:40)
12. Heroine {from Captive} (4:27)
13. Don't Cry For Me Argentina (5:37)
14. You Made Me The Thief Of Your Heart (6:20)
15. Just Like U Said It Would B (4:28)
Отчет EAC:
EAC extraction logfile from 11. February 2006, 9:11 for CD
Sinead O'Connor / So Far... The Best Of Sinead O'Connor
Used drive : LITE-ON DVDRW LDW-811S Adapter: 0 ID: 0
Read mode : Secure with NO C2, accurate stream, disable cache
Read offset correction : 12
Overread into Lead-In and Lead-Out : No
Used output format : C:\Program Files\FLAC\flac.exe (User Defined Encoder)
320 kBit/s
Additional command line options : -5 -V -T "ARTIST=%a" -T "TITLE=%t" -T "ALBUM=%g" -T "DATE=%y" -T "TRACKNUMBER=%n" -T "GENRE=%m" -T "COMMENT=EAC Flac 1.1.2 -5" %s
Other options :
Fill up missing offset samples with silence : Yes
Delete leading and trailing silent blocks : No
Installed external ASPI interface
Track 1
Filename D:\Sinead O'Connor - So Far-The Best Of Sinead O'Connor (1997) [FLAC]\01 - Nothing Compares 2 U.wav
Pre-gap length 0:00:02.00
Peak level 91.6 %
Track quality 100.0 %
Test CRC D63159DC
Copy CRC D63159DC
Copy OK
Track 2
Filename D:\Sinead O'Connor - So Far-The Best Of Sinead O'Connor (1997) [FLAC]\02 - Mandinka.wav
Pre-gap length 0:00:01.18
Peak level 92.8 %
Track quality 100.0 %
Test CRC 3D600E99
Copy CRC 3D600E99
Copy OK
Track 3
Filename D:\Sinead O'Connor - So Far-The Best Of Sinead O'Connor (1997) [FLAC]\03 - The Emperor's New Clothes.wav
Pre-gap length 0:00:01.62
Peak level 95.8 %
Track quality 100.0 %
Test CRC 5C392547
Copy CRC 5C392547
Copy OK
Track 4
Filename D:\Sinead O'Connor - So Far-The Best Of Sinead O'Connor (1997) [FLAC]\04 - The Last Day Of Our Acquaintance.wav
Pre-gap length 0:00:01.16
Peak level 92.9 %
Track quality 100.0 %
Test CRC 9B6CFDD3
Copy CRC 9B6CFDD3
Copy OK
Track 5
Filename D:\Sinead O'Connor - So Far-The Best Of Sinead O'Connor (1997) [FLAC]\05 - Fire On Babylon.wav
Pre-gap length 0:00:01.40
Peak level 90.2 %
Track quality 99.9 %
Test CRC 776A59C0
Copy CRC 776A59C0
Copy OK
Track 6
Filename D:\Sinead O'Connor - So Far-The Best Of Sinead O'Connor (1997) [FLAC]\06 - Troy.wav
Pre-gap length 0:00:00.93
Peak level 92.2 %
Track quality 100.0 %
Test CRC A3BC0283
Copy CRC A3BC0283
Copy OK
Track 7
Filename D:\Sinead O'Connor - So Far-The Best Of Sinead O'Connor (1997) [FLAC]\07 - I Am Stretched On Your Grave.wav
Pre-gap length 0:00:01.77
Peak level 93.2 %
Track quality 99.9 %
Test CRC 192F2E98
Copy CRC 192F2E98
Copy OK
Track 8
Filename D:\Sinead O'Connor - So Far-The Best Of Sinead O'Connor (1997) [FLAC]\08 - Success Has Made A Failure Of Our Home.wav
Pre-gap length 0:00:01.53
Peak level 97.0 %
Track quality 99.9 %
Test CRC B0C4FB8D
Copy CRC B0C4FB8D
Copy OK
Track 9
Filename D:\Sinead O'Connor - So Far-The Best Of Sinead O'Connor (1997) [FLAC]\09 - John I Love You.wav
Pre-gap length 0:00:02.26
Peak level 87.6 %
Track quality 100.0 %
Test CRC 98DF230D
Copy CRC 98DF230D
Copy OK
Track 10
Filename D:\Sinead O'Connor - So Far-The Best Of Sinead O'Connor (1997) [FLAC]\10 - Empire - Bomb The Bass.wav
Pre-gap length 0:00:00.76
Peak level 87.5 %
Track quality 100.0 %
Test CRC F1CE657A
Copy CRC F1CE657A
Copy OK
Track 11
Filename D:\Sinead O'Connor - So Far-The Best Of Sinead O'Connor (1997) [FLAC]\11 - I Want Your (Hands On Me).wav
Pre-gap length 0:00:01.62
Peak level 93.6 %
Track quality 100.0 %
Test CRC EE5EBA58
Copy CRC EE5EBA58
Copy OK
Track 12
Filename D:\Sinead O'Connor - So Far-The Best Of Sinead O'Connor (1997) [FLAC]\12 - Heroine {from Captive}.wav
Pre-gap length 0:00:01.20
Peak level 89.4 %
Track quality 100.0 %
Test CRC 184FC559
Copy CRC 184FC559
Copy OK
Track 13
Filename D:\Sinead O'Connor - So Far-The Best Of Sinead O'Connor (1997) [FLAC]\13 - Don't Cry For Me Argentina.wav
Pre-gap length 0:00:02.16
Peak level 90.0 %
Track quality 100.0 %
Test CRC A9C315AE
Copy CRC A9C315AE
Copy OK
Track 14
Filename D:\Sinead O'Connor - So Far-The Best Of Sinead O'Connor (1997) [FLAC]\14 - You Made Me The Thief Of Your Heart.wav
Pre-gap length 0:00:01.70
Peak level 91.6 %
Track quality 100.0 %
Test CRC E0902839
Copy CRC E0902839
Copy OK
Track 15
Filename D:\Sinead O'Connor - So Far-The Best Of Sinead O'Connor (1997) [FLAC]\15 - Just Like U Said It Would B.wav
Peak level 89.1 %
Track quality 100.0 %
Test CRC 67BA2F49
Copy CRC 67BA2F49
Copy OK
No errors occured
End of status report
Доп. информация:
Источник - другой трекер. Сканов нет. Раздача осуществляется с любезного согласия оригинального релизера - RadioClash.
1997 - So Far - The Best Of Sinead O'Connor (UK Release)
Год выпуска: 1997
Продолжительность: 1:14:30
Формат: FLAC (tracks + .cue)
Трэклист:
01. Nothing Compares 2 U (5:11)
02. Mandinka (3:49)
03. The Emperor's New Clothes (5:17)
04. Thank You For Hearing Me (4:37)
05. The Last Day Of Our Acquaintance (4:40)
06. Fire On Babylon (5:10)
07. Troy (6:33)
08. I Am Stretched On Your Grave (5:35)
09. Jackie (2:31)
10. Success Has Made A Failure Of Our Home (4:29)
11. John I Love You (5:49)
12. Empire - Bomb the Bass (featuring Benjamin Zepnanian and Sinéad O'Connor) (5:51)
13. Don't Cry For Me Argentina (5:38)
14. You Made Me The Thief Of Your Heart (6:20)
15. This Is A Rebel Song (3:00)
EAC log
EAC extraction logfile from 4. May 2009, 18:29 for CD
Sinead O'Connor / So Far ... The Best Of
Used drive : HL-DT-STDVD-ROM GDR8164B Adapter: 0 ID: 1
Read mode : Secure with NO C2, accurate stream, disable cache
Read offset correction : 102
Overread into Lead-In and Lead-Out : No
Used output format : I:\Exact Audio Copy\flac.exe (User Defined Encoder)
128 kBit/s
Additional command line options : -V -8 -T "artist=%a" -T "title=%t" -T "album=%g" -T "date=%y" -T "tracknumber=%n" -T "genre=%m" %s
Other options :
Fill up missing offset samples with silence : Yes
Delete leading and trailing silent blocks : No
Installed external ASPI interface
Track 1
Filename i:\MP3s\rip\Sinead O'Connor - So Far ... The Best Of - 1997\01 - Nothing Compares 2 U.wav
Pre-gap length 0:00:02.00
Peak level 91.6 %
Track quality 100.0 %
Test CRC 60C10F0F
Copy CRC 60C10F0F
Copy OK
Track 2
Filename i:\MP3s\rip\Sinead O'Connor - So Far ... The Best Of - 1997\02 - Mandinka.wav
Pre-gap length 0:00:01.20
Peak level 92.8 %
Track quality 100.0 %
Test CRC 18C8C42D
Copy CRC 18C8C42D
Copy OK
Track 3
Filename i:\MP3s\rip\Sinead O'Connor - So Far ... The Best Of - 1997\03 - The Emperor's New Clothes.wav
Pre-gap length 0:00:01.62
Peak level 95.8 %
Track quality 100.0 %
Test CRC 1682C523
Copy CRC 1682C523
Copy OK
Track 4
Filename i:\MP3s\rip\Sinead O'Connor - So Far ... The Best Of - 1997\04 - Thank You For Hearing Me.wav
Pre-gap length 0:00:01.13
Peak level 98.0 %
Track quality 99.9 %
Test CRC AE94A7DE
Copy CRC AE94A7DE
Copy OK
Track 5
Filename i:\MP3s\rip\Sinead O'Connor - So Far ... The Best Of - 1997\05 - The Last Day Of Our Acquaintance.wav
Pre-gap length 0:00:01.40
Peak level 92.9 %
Track quality 100.0 %
Test CRC 811607B6
Copy CRC 811607B6
Copy OK
Track 6
Filename i:\MP3s\rip\Sinead O'Connor - So Far ... The Best Of - 1997\06 - Fire On Babylon.wav
Pre-gap length 0:00:01.40
Peak level 90.2 %
Track quality 100.0 %
Test CRC 96054B27
Copy CRC 96054B27
Copy OK
Track 7
Filename i:\MP3s\rip\Sinead O'Connor - So Far ... The Best Of - 1997\07 - Troy.wav
Pre-gap length 0:00:00.86
Peak level 92.2 %
Track quality 100.0 %
Test CRC FEA2090F
Copy CRC FEA2090F
Copy OK
Track 8
Filename i:\MP3s\rip\Sinead O'Connor - So Far ... The Best Of - 1997\08 - I Am Stretched On Your Grave.wav
Pre-gap length 0:00:01.76
Peak level 93.2 %
Track quality 100.0 %
Test CRC F12513B3
Copy CRC F12513B3
Copy OK
Track 9
Filename i:\MP3s\rip\Sinead O'Connor - So Far ... The Best Of - 1997\09 - Jackie.wav
Pre-gap length 0:00:01.37
Peak level 87.6 %
Track quality 100.0 %
Test CRC 4554FE4D
Copy CRC 4554FE4D
Copy OK
Track 10
Filename i:\MP3s\rip\Sinead O'Connor - So Far ... The Best Of - 1997\10 - Success Has Made A Failure Of Our Home.wav
Pre-gap length 0:00:01.76
Peak level 97.0 %
Track quality 99.9 %
Test CRC A9924977
Copy CRC A9924977
Copy OK
Track 11
Filename i:\MP3s\rip\Sinead O'Connor - So Far ... The Best Of - 1997\11 - John I Love You.wav
Pre-gap length 0:00:02.20
Peak level 87.6 %
Track quality 100.0 %
Test CRC DCB76913
Copy CRC DCB76913
Copy OK
Track 12
Filename i:\MP3s\rip\Sinead O'Connor - So Far ... The Best Of - 1997\12 - Empire - Bomb the Bass (featuring Benjamin Zepnanian and Sinйad O'Connor).wav
Pre-gap length 0:00:00.73
Peak level 87.5 %
Track quality 100.0 %
Test CRC C5B011F4
Copy CRC C5B011F4
Copy OK
Track 13
Filename i:\MP3s\rip\Sinead O'Connor - So Far ... The Best Of - 1997\13 - Don't Cry For Me Argentina.wav
Pre-gap length 0:00:01.90
Peak level 90.0 %
Track quality 100.0 %
Test CRC 4C6F36E6
Copy CRC 4C6F36E6
Copy OK
Track 14
Filename i:\MP3s\rip\Sinead O'Connor - So Far ... The Best Of - 1997\14 - You Made Me The Thief Of Your Heart.wav
Pre-gap length 0:00:02.80
Peak level 91.6 %
Track quality 100.0 %
Test CRC 13E27E32
Copy CRC 13E27E32
Copy OK
Track 15
Filename i:\MP3s\rip\Sinead O'Connor - So Far ... The Best Of - 1997\15 - This Is A Rebel Song.wav
Peak level 82.7 %
Track quality 100.0 %
Test CRC BA4F6D78
Copy CRC BA4F6D78
Copy OK
No errors occured
End of status report
.cue
REM GENRE Pop
REM DATE 1997
REM DISCID C411760F
REM COMMENT "ExactAudioCopy v0.95b3"
FILE "Sinead O'Connor - So Far ... The Best Of - 1997\01 - Nothing Compares 2 U.wav" WAVE
TRACK 01 AUDIO
INDEX 01 00:00:00
TRACK 02 AUDIO
INDEX 00 05:09:55
FILE "Sinead O'Connor - So Far ... The Best Of - 1997\02 - Mandinka.wav" WAVE
INDEX 01 00:00:00
TRACK 03 AUDIO
INDEX 00 03:47:00
FILE "Sinead O'Connor - So Far ... The Best Of - 1997\03 - The Emperor's New Clothes.wav" WAVE
INDEX 01 00:00:00
TRACK 04 AUDIO
INDEX 00 05:15:65
FILE "Sinead O'Connor - So Far ... The Best Of - 1997\04 - Thank You For Hearing Me.wav" WAVE
INDEX 01 00:00:00
TRACK 05 AUDIO
INDEX 00 04:35:40
FILE "Sinead O'Connor - So Far ... The Best Of - 1997\05 - The Last Day Of Our Acquaintance.wav" WAVE
INDEX 01 00:00:00
TRACK 06 AUDIO
INDEX 00 04:38:48
FILE "Sinead O'Connor - So Far ... The Best Of - 1997\06 - Fire On Babylon.wav" WAVE
INDEX 01 00:00:00
TRACK 07 AUDIO
INDEX 00 05:09:17
FILE "Sinead O'Connor - So Far ... The Best Of - 1997\07 - Troy.wav" WAVE
INDEX 01 00:00:00
TRACK 08 AUDIO
INDEX 00 06:31:33
FILE "Sinead O'Connor - So Far ... The Best Of - 1997\08 - I Am Stretched On Your Grave.wav" WAVE
INDEX 01 00:00:00
TRACK 09 AUDIO
INDEX 00 05:33:65
FILE "Sinead O'Connor - So Far ... The Best Of - 1997\09 - Jackie.wav" WAVE
INDEX 01 00:00:00
TRACK 10 AUDIO
INDEX 00 02:28:70
FILE "Sinead O'Connor - So Far ... The Best Of - 1997\10 - Success Has Made A Failure Of Our Home.wav" WAVE
INDEX 01 00:00:00
TRACK 11 AUDIO
INDEX 00 04:27:05
FILE "Sinead O'Connor - So Far ... The Best Of - 1997\11 - John I Love You.wav" WAVE
INDEX 01 00:00:00
TRACK 12 AUDIO
INDEX 00 05:48:38
FILE "Sinead O'Connor - So Far ... The Best Of - 1997\12 - Empire - Bomb the Bass (featuring Benjamin Zepnanian and Sinйad O'Connor).wav" WAVE
INDEX 01 00:00:00
TRACK 13 AUDIO
INDEX 00 05:49:07
FILE "Sinead O'Connor - So Far ... The Best Of - 1997\13 - Don't Cry For Me Argentina.wav" WAVE
INDEX 01 00:00:00
TRACK 14 AUDIO
INDEX 00 05:35:30
FILE "Sinead O'Connor - So Far ... The Best Of - 1997\14 - You Made Me The Thief Of Your Heart.wav" WAVE
INDEX 01 00:00:00
FILE "Sinead O'Connor - So Far ... The Best Of - 1997\15 - This Is A Rebel Song.wav" WAVE
TRACK 15 AUDIO
INDEX 01 00:00:00
Доп. информация:
Источник - другой трекер. Сканов нет. Релизер - nyineen.
2000 - Faith and Courage
Год выпуска: 2000
Продолжительность: 0:55:57
Формат: FLAC (tracks + .cue)
Трэклист:
01. The Healing Room (5:36)
02. No Man's Woman (3:02)
03. Jealous (4:18)
04. Dancing Lessons (4:18)
05. Daddy I'm Fine (2:59)
06. 'Til I Whisper U Something (6:08)
07. Hold Back The Night (4:13)
08. What Doesn't Belong To Me (5:39)
09. The State I'm In (4:11)
10. The Lamb's Book Of Life (4:58)
11. If U Ever (4:26)
12. Emma's Song (3:24)
13. Kyrie Eleison (2:45)
Отчет EAC:
EAC extraction logfile from 10. April 2008, 10:33 for CD
Sinead O'Connor / Faith and Courage
Used drive : PIONEER DVD-RW DVR-111D Adapter: 0 ID: 3
Read mode : Secure with NO C2, accurate stream, disable cache
Read offset correction : 48
Overread into Lead-In and Lead-Out : No
Used output format : C:\Program Files\Exact Audio Copy\Flac 1.1.4\flac.exe (User Defined Encoder)
320 kBit/s
Additional command line options : -8 -V -T "artist=%a" -T "title=%t" -T "album=%g" -T "date=%y" -T "tracknumber=%n" -T "genre=%m" %s
Other options :
Fill up missing offset samples with silence : Yes
Delete leading and trailing silent blocks : No
Installed external ASPI interface
Track 1
Filename F:\Sinead O'Connor - Faith and Courage (2000) [FLAC]\01 - The Healing Room.wav
Pre-gap length 0:00:02.00
Peak level 100.0 %
Track quality 100.0 %
Test CRC E4B6B5CB
Copy CRC E4B6B5CB
Copy OK
Track 2
Filename F:\Sinead O'Connor - Faith and Courage (2000) [FLAC]\02 - No Man's Woman.wav
Pre-gap length 0:00:00.64
Peak level 100.0 %
Track quality 99.9 %
Test CRC 36292C9C
Copy CRC 36292C9C
Copy OK
Track 3
Filename F:\Sinead O'Connor - Faith and Courage (2000) [FLAC]\03 - Jealous.wav
Pre-gap length 0:00:01.62
Peak level 100.0 %
Track quality 100.0 %
Test CRC B3B7E7E8
Copy CRC B3B7E7E8
Copy OK
Track 4
Filename F:\Sinead O'Connor - Faith and Courage (2000) [FLAC]\04 - Dancing Lessons.wav
Pre-gap length 0:00:00.17
Peak level 100.0 %
Track quality 100.0 %
Test CRC D76F8FB5
Copy CRC D76F8FB5
Copy OK
Track 5
Filename F:\Sinead O'Connor - Faith and Courage (2000) [FLAC]\05 - Daddy I'm Fine.wav
Pre-gap length 0:00:00.97
Peak level 100.0 %
Track quality 100.0 %
Test CRC 162B0204
Copy CRC 162B0204
Copy OK
Track 6
Filename F:\Sinead O'Connor - Faith and Courage (2000) [FLAC]\06 - 'Til I Whisper U Something.wav
Pre-gap length 0:00:00.90
Peak level 100.0 %
Track quality 100.0 %
Test CRC 4261DC73
Copy CRC 4261DC73
Copy OK
Track 7
Filename F:\Sinead O'Connor - Faith and Courage (2000) [FLAC]\07 - Hold Back The Night.wav
Peak level 100.0 %
Track quality 100.0 %
Test CRC 00EC13B9
Copy CRC 00EC13B9
Copy OK
Track 8
Filename F:\Sinead O'Connor - Faith and Courage (2000) [FLAC]\08 - What Doesn't Belong To Me.wav
Pre-gap length 0:00:01.20
Peak level 100.0 %
Track quality 100.0 %
Test CRC 16B7A2BD
Copy CRC 16B7A2BD
Copy OK
Track 9
Filename F:\Sinead O'Connor - Faith and Courage (2000) [FLAC]\09 - The State I'm In.wav
Pre-gap length 0:00:01.73
Peak level 100.0 %
Track quality 100.0 %
Test CRC 42B2968B
Copy CRC 42B2968B
Copy OK
Track 10
Filename F:\Sinead O'Connor - Faith and Courage (2000) [FLAC]\10 - The Lamb's Book Of Life.wav
Pre-gap length 0:00:01.76
Peak level 100.0 %
Track quality 100.0 %
Test CRC 8337B4FB
Copy CRC 8337B4FB
Copy OK
Track 11
Filename F:\Sinead O'Connor - Faith and Courage (2000) [FLAC]\11 - If U Ever.wav
Pre-gap length 0:00:01.62
Peak level 100.0 %
Track quality 100.0 %
Test CRC 50DA5601
Copy CRC 50DA5601
Copy OK
Track 12
Filename F:\Sinead O'Connor - Faith and Courage (2000) [FLAC]\12 - Emma's Song.wav
Pre-gap length 0:00:01.73
Peak level 100.0 %
Track quality 99.9 %
Test CRC E0E3E9DD
Copy CRC E0E3E9DD
Copy OK
Track 13
Filename F:\Sinead O'Connor - Faith and Courage (2000) [FLAC]\13 - Kyrie Eleison.wav
Pre-gap length 0:00:04.13
Peak level 90.1 %
Track quality 100.0 %
Test CRC 3B4E4D9A
Copy CRC 3B4E4D9A
Copy OK
No errors occured
End of status report
Доп. информация:
Источник - другой трекер. Полный комплект сканов. Раздача осуществляется с любезного согласия оригинального релизера - Brillante53.
2002 - Sean-Nos Nua
Год выпуска: 2002
Продолжительность: 1:05:16
Формат: FLAC (tracks + .cue)
Трэклист:
01.Peggy Gordon (5:37)
02.Her Mantle So Green (5:38)
03.Lord Franklin (5:01)
04.The Singing Bird (4:29)
05.Oro Se Do Bheatha 'Bhaile (3:21)
06.Molly Malone (3:34)
07.Paddy's Lament (5:28)
08.The Moorlough Shore (5:27)
09.The Parting Glass (4:33)
10.Baidin Fheilimi (3:22)
11.My Lagan Love (4:44)
12.Lord Baker (11:41)
13.I'll Tell Me Ma (2:22)
Отчет EAC:
Exact Audio Copy V0.99 prebeta 4 from 23. January 2008
EAC extraction logfile from 4. July 2009, 17:45
Sinйad O'Connor / Sean-Nos Nua
Used drive : _NEC DVD+-RW ND-6650A Adapter: 1 ID: 0
Read mode : Secure
Utilize accurate stream : Yes
Defeat audio cache : Yes
Make use of C2 pointers : No
Read offset correction : 48
Overread into Lead-In and Lead-Out : No
Fill up missing offset samples with silence : Yes
Delete leading and trailing silent blocks : No
Null samples used in CRC calculations : Yes
Used interface : Native Win32 interface for Win NT & 2000
Gap handling : Appended to previous track
Used output format : Internal WAV Routines
Sample format : 44.100 Hz; 16 Bit; Stereo
TOC of the extracted CD
Track | Start | Length | Start sector | End sector
---------------------------------------------------------
1 | 0:00.00 | 5:37.12 | 0 | 25286
2 | 5:37.12 | 5:37.43 | 25287 | 50604
3 | 11:14.55 | 5:00.42 | 50605 | 73146
4 | 16:15.22 | 4:29.35 | 73147 | 93356
5 | 20:44.57 | 3:20.63 | 93357 | 108419
6 | 24:05.45 | 3:33.60 | 108420 | 124454
7 | 27:39.30 | 5:28.02 | 124455 | 149056
8 | 33:07.32 | 5:26.43 | 149057 | 173549
9 | 38:34.00 | 4:32.60 | 173550 | 194009
10 | 43:06.60 | 3:22.37 | 194010 | 209196
11 | 46:29.22 | 4:44.25 | 209197 | 230521
12 | 51:13.47 | 11:40.43 | 230522 | 283064
13 | 62:54.15 | 2:22.20 | 283065 | 293734
Track 1
Filename C:\Documents and Settings\Sinead\01 - Peggy Gordon.wav
Pre-gap length 0:00:02.00
Peak level 97.9 %
Track quality 100.0 %
Test CRC 8D8615ED
Copy CRC 8D8615ED
Accurately ripped (confidence 12) [0D37D018]
Copy OK
Track 2
Filename C:\Documents and Settings\Sinead\02 - Her Mantle So Green.wav
Pre-gap length 0:00:01.56
Peak level 97.9 %
Track quality 100.0 %
Test CRC F908380B
Copy CRC F908380B
Accurately ripped (confidence 11) [3FA4E6B4]
Copy OK
Track 3
Filename C:\Documents and Settings\Sinead\03 - Lord Franklin.wav
Pre-gap length 0:00:01.57
Peak level 97.9 %
Track quality 100.0 %
Test CRC 1535AB5C
Copy CRC 1535AB5C
Accurately ripped (confidence 12) [C8A7AF51]
Copy OK
Track 4
Filename C:\Documents and Settings\Sinead\04 - The Singing Bird.wav
Pre-gap length 0:00:01.56
Peak level 100.0 %
Track quality 100.0 %
Test CRC C481A35D
Copy CRC C481A35D
Accurately ripped (confidence 12) [4589F833]
Copy OK
Track 5
Filename C:\Documents and Settings\Sinead\05 - Уrу Sй Do Bheatha 'Bhaile.wav
Pre-gap length 0:00:01.56
Peak level 97.9 %
Track quality 100.0 %
Test CRC FEF84AAC
Copy CRC FEF84AAC
Accurately ripped (confidence 12) [A3BB695D]
Copy OK
Track 6
Filename C:\Documents and Settings\Sinead\06 - Molly Malone.wav
Pre-gap length 0:00:01.57
Peak level 95.6 %
Track quality 100.0 %
Test CRC 3026F31A
Copy CRC 3026F31A
Accurately ripped (confidence 12) [A689CEF5]
Copy OK
Track 7
Filename C:\Documents and Settings\Sinead\07 - Paddy's Lament.wav
Pre-gap length 0:00:01.57
Peak level 97.9 %
Track quality 100.0 %
Test CRC 4DDD7877
Copy CRC 4DDD7877
Accurately ripped (confidence 12) [C0BFAA9F]
Copy OK
Track 8
Filename C:\Documents and Settings\Sinead\08 - The Moorlough Shore.wav
Pre-gap length 0:00:01.56
Peak level 97.9 %
Track quality 100.0 %
Test CRC CA23E196
Copy CRC CA23E196
Accurately ripped (confidence 12) [E6FB23E4]
Copy OK
Track 9
Filename C:\Documents and Settings\Sinead\09 - The Parting Glass.wav
Pre-gap length 0:00:01.57
Peak level 97.9 %
Track quality 100.0 %
Test CRC 3A5ADCAF
Copy CRC 3A5ADCAF
Accurately ripped (confidence 11) [4FC141ED]
Copy OK
Track 10
Filename C:\Documents and Settings\Sinead\10 - Bбidнn Fheilimн.wav
Pre-gap length 0:00:01.57
Peak level 100.0 %
Track quality 100.0 %
Test CRC F5D1394C
Copy CRC F5D1394C
Accurately ripped (confidence 11) [5058C976]
Copy OK
Track 11
Filename C:\Documents and Settings\Sinead\11 - My Lagan Love.wav
Pre-gap length 0:00:01.56
Peak level 97.9 %
Track quality 100.0 %
Test CRC A6CFC88A
Copy CRC A6CFC88A
Accurately ripped (confidence 11) [8C31E2CD]
Copy OK
Track 12
Filename C:\Documents and Settings\Sinead\12 - Lord Baker.wav
Pre-gap length 0:00:01.56
Peak level 97.9 %
Track quality 100.0 %
Test CRC D0A4033C
Copy CRC D0A4033C
Accurately ripped (confidence 12) [90094009]
Copy OK
Track 13
Filename C:\Documents and Settings\Sinead\13 - I'll Tell Me Ma.wav
Pre-gap length 0:00:01.57
Peak level 100.0 %
Track quality 100.0 %
Test CRC A9EA51A4
Copy CRC A9EA51A4
Accurately ripped (confidence 10) [F7C45360]
Copy OK
All tracks accurately ripped
No errors occurred
End of status report
.cue
REM GENRE Rock
REM DATE 2002
REM DISCID DD0F4C0D
REM COMMENT "ExactAudioCopy v0.99pb4"
PERFORMER "Sinйad O'Connor"
TITLE "Sean-Nos Nua"
FILE "01 - Peggy Gordon.wav" WAVE
TRACK 01 AUDIO
TITLE "Peggy Gordon"
PERFORMER "Sinйad O'Connor"
INDEX 01 00:00:00
TRACK 02 AUDIO
TITLE "Her Mantle So Green"
PERFORMER "Sinйad O'Connor"
INDEX 00 05:35:45
FILE "02 - Her Mantle So Green.wav" WAVE
INDEX 01 00:00:00
TRACK 03 AUDIO
TITLE "Lord Franklin"
PERFORMER "Sinйad O'Connor"
INDEX 00 05:36:00
FILE "03 - Lord Franklin.wav" WAVE
INDEX 01 00:00:00
TRACK 04 AUDIO
TITLE "The Singing Bird"
PERFORMER "Sinйad O'Connor"
INDEX 00 04:59:00
FILE "04 - The Singing Bird.wav" WAVE
INDEX 01 00:00:00
TRACK 05 AUDIO
TITLE "Уrу Sй Do Bheatha 'Bhaile"
PERFORMER "Sinйad O'Connor"
INDEX 00 04:27:68
FILE "05 - Уrу Sй Do Bheatha 'Bhaile.wav" WAVE
INDEX 01 00:00:00
TRACK 06 AUDIO
TITLE "Molly Malone"
PERFORMER "Sinйad O'Connor"
INDEX 00 03:19:20
FILE "06 - Molly Malone.wav" WAVE
INDEX 01 00:00:00
TRACK 07 AUDIO
TITLE "Paddy's Lament"
PERFORMER "Sinйad O'Connor"
INDEX 00 03:32:17
FILE "07 - Paddy's Lament.wav" WAVE
INDEX 01 00:00:00
TRACK 08 AUDIO
TITLE "The Moorlough Shore"
PERFORMER "Sinйad O'Connor"
INDEX 00 05:26:35
FILE "08 - The Moorlough Shore.wav" WAVE
INDEX 01 00:00:00
TRACK 09 AUDIO
TITLE "The Parting Glass"
PERFORMER "Sinйad O'Connor"
INDEX 00 05:25:00
FILE "09 - The Parting Glass.wav" WAVE
INDEX 01 00:00:00
TRACK 10 AUDIO
TITLE "Bбidнn Fheilimн"
PERFORMER "Sinйad O'Connor"
INDEX 00 04:31:17
FILE "10 - Bбidнn Fheilimн.wav" WAVE
INDEX 01 00:00:00
TRACK 11 AUDIO
TITLE "My Lagan Love"
PERFORMER "Sinйad O'Connor"
INDEX 00 03:20:70
FILE "11 - My Lagan Love.wav" WAVE
INDEX 01 00:00:00
TRACK 12 AUDIO
TITLE "Lord Baker"
PERFORMER "Sinйad O'Connor"
INDEX 00 04:42:58
FILE "12 - Lord Baker.wav" WAVE
INDEX 01 00:00:00
TRACK 13 AUDIO
TITLE "I'll Tell Me Ma"
PERFORMER "Sinйad O'Connor"
INDEX 00 11:39:00
FILE "13 - I'll Tell Me Ma.wav" WAVE
INDEX 01 00:00:00
Доп. информация:
Источник - другой трекер. Сканы в комплекте. Релизер - Shitthebed.
2003 - She Who Dwells in the Secret Place of the Most High Shall Abide Under the Shadow of the Almighty (2CD)
Год выпуска: 2003
Продолжительность: 1:18:04 + 1:07:18
Формат: FLAC (tracks + .cue)
Трэклист:
Трэклист CD1
01. Regina Caeli (1:04)
02. O Filii Et Filiae (3:15)
03. My Love I Bring (3:56)
04. Do Right Woman (3:55)
05. Love Hurts (4:03)
06. Ain't It A Shame (4:32)
07. Chiquitita (3:51)
08. Brigidine Diana (4:14)
09. It's All Good (5:09)
10. Love Is Ours (Demo) (4:45)
11. A Hundred Thousand Angels (3:20)
12. You Put Your Arms Around Me (Demo) (5:00)
13. Emma's Song (4:23)
14. No Matter How Hard I Try (Demo) (4:24)
15. Dense Water Deeper Down (3:34)
16. This Is A Rebel Song (3:50)
17. 1000 Mirrors (4:53)
18. Big Bunch Of Junkie Lies (4:04)
19. Song Of Jerusalem (5:52)
Трэклист CD2
01. Molly Malone (3:57)
02. Oro Se Do Bheatha 'Bhaile (3:07)
03. The Singing Bird (4:26)
04. My Lagan Love (5:13)
05. I Am Stretched On Your Grave (4:44)
06. Nothing Compares 2 U (5:41)
07. John I Love You (5:31)
08. The Moorlough Shore (5:41)
09. You Made Me The Thief Of Your Heart (4:39)
10. Paddy's Lament (5:37)
11. Thank You For Hearing Me (5:12)
12. Fire On Babylon (7:33)
13. The Last Day Of Our Acquaintance (5:58)
Отчет EAC, CD1:
Exact Audio Copy V0.99 prebeta 5 from 4. May 2009
EAC extraction logfile from 23. May 2010, 11:47
- / She Who Dwells In The Secret Place Of The Most High Shall Abide Under The Shadow Of The Almighty
Used drive : PLEXTOR DVDR PX-880SA Adapter: 0 ID: 1
Read mode : Secure
Utilize accurate stream : Yes
Defeat audio cache : Yes
Make use of C2 pointers : No
Read offset correction : 6
Overread into Lead-In and Lead-Out : No
Fill up missing offset samples with silence : Yes
Delete leading and trailing silent blocks : No
Null samples used in CRC calculations : Yes
Used interface : Installed external ASPI interface
Gap handling : Appended to previous track
Used output format : User Defined Encoder
Selected bitrate : 1024 kBit/s
Quality : High
Add ID3 tag : No
Command line compressor : C:\Program Files (x86)\Exact Audio Copy\Flac\flac.exe
Additional command line options : -V -8 -T "artist=%a" -T "title=%t" -T "album=%g" -T "date=%y" -T "tracknumber=%n" -T "genre=%m" %s
TOC of the extracted CD
Track | Start | Length | Start sector | End sector
---------------------------------------------------------
1 | 0:00.00 | 1:03.69 | 0 | 4793
2 | 1:03.69 | 3:14.73 | 4794 | 19416
3 | 4:18.67 | 3:55.54 | 19417 | 37095
4 | 8:14.46 | 3:55.04 | 37096 | 54724
5 | 12:09.50 | 4:03.33 | 54725 | 72982
6 | 16:13.08 | 4:31.38 | 72983 | 93345
7 | 20:44.46 | 3:50.71 | 93346 | 110666
8 | 24:35.42 | 4:14.20 | 110667 | 129736
9 | 28:49.62 | 5:09.28 | 129737 | 152939
10 | 33:59.15 | 4:45.05 | 152940 | 174319
11 | 38:44.20 | 3:20.10 | 174320 | 189329
12 | 42:04.30 | 4:59.51 | 189330 | 211805
13 | 47:04.06 | 4:22.45 | 211806 | 231500
14 | 51:26.51 | 4:24.25 | 231501 | 251325
15 | 55:51.01 | 3:34.33 | 251326 | 267408
16 | 59:25.34 | 3:49.74 | 267409 | 284657
17 | 63:15.33 | 4:53.24 | 284658 | 306656
18 | 68:08.57 | 4:03.38 | 306657 | 324919
19 | 72:12.20 | 5:52.13 | 324920 | 351332
Track 1
Filename 01 - Regina Caeli.wav
Pre-gap length 0:00:02.00
Peak level 96.6 %
Track quality 100.0 %
Test CRC 4D4D0060
Copy CRC 4D4D0060
Accurately ripped (confidence 27) [333A51A2]
Copy OK
Track 2
Filename 02 - O Filii Et Filiae.wav
Pre-gap length 0:00:02.00
Peak level 94.4 %
Track quality 100.0 %
Test CRC C0AC009F
Copy CRC C0AC009F
Accurately ripped (confidence 28) [F4C29A0C]
Copy OK
Track 3
Filename 03 - My Love I Bring.wav
Pre-gap length 0:00:02.00
Peak level 96.6 %
Track quality 100.0 %
Test CRC 15A4EC78
Copy CRC 15A4EC78
Accurately ripped (confidence 28) [B79B27AA]
Copy OK
Track 4
Filename 04 - Do Right Woman.wav
Pre-gap length 0:00:02.00
Peak level 75.0 %
Track quality 100.0 %
Test CRC FD6CCA10
Copy CRC FD6CCA10
Accurately ripped (confidence 28) [093BC48A]
Copy OK
Track 5
Filename 05 - Love Hurts.wav
Pre-gap length 0:00:02.00
Peak level 89.1 %
Track quality 100.0 %
Test CRC 888782E4
Copy CRC 888782E4
Accurately ripped (confidence 28) [1EE0D7DA]
Copy OK
Track 6
Filename 06 - Ain't It A Shame.wav
Pre-gap length 0:00:02.00
Peak level 85.1 %
Track quality 100.0 %
Test CRC 0F09E4EF
Copy CRC 0F09E4EF
Accurately ripped (confidence 28) [44CBD7CB]
Copy OK
Track 7
Filename 07 - Chiquitita.wav
Pre-gap length 0:00:02.00
Peak level 79.4 %
Track quality 100.0 %
Test CRC 31B80D62
Copy CRC 31B80D62
Accurately ripped (confidence 28) [CACDC7A1]
Copy OK
Track 8
Filename 08 - Brigidine Diana.wav
Pre-gap length 0:00:02.00
Peak level 72.4 %
Track quality 100.0 %
Test CRC EB1E19A1
Copy CRC EB1E19A1
Accurately ripped (confidence 28) [A56734DF]
Copy OK
Track 9
Filename 09 - It's All Good.wav
Pre-gap length 0:00:02.00
Peak level 93.3 %
Track quality 100.0 %
Test CRC 9620E5DB
Copy CRC 9620E5DB
Accurately ripped (confidence 28) [539D20C8]
Copy OK
Track 10
Filename 10 - Love Is Ours (Demo).wav
Pre-gap length 0:00:02.00
Peak level 84.1 %
Track quality 100.0 %
Test CRC A41D8B92
Copy CRC A41D8B92
Accurately ripped (confidence 28) [1B7134B9]
Copy OK
Track 11
Filename 11 - A Hundred Thousand Angels.wav
Pre-gap length 0:00:02.00
Peak level 98.8 %
Track quality 100.0 %
Test CRC 00E9D4AB
Copy CRC 00E9D4AB
Accurately ripped (confidence 28) [50DA2322]
Copy OK
Track 12
Filename 12 - You Put Your Arms Around Me (Demo).wav
Pre-gap length 0:00:02.00
Peak level 98.8 %
Track quality 100.0 %
Test CRC 21226591
Copy CRC 21226591
Accurately ripped (confidence 28) [E66FC67D]
Copy OK
Track 13
Filename 13 - Emma's Song.wav
Pre-gap length 0:00:02.00
Peak level 83.1 %
Track quality 100.0 %
Test CRC D156C6D5
Copy CRC D156C6D5
Accurately ripped (confidence 28) [6260E85D]
Copy OK
Track 14
Filename 14 - No Matter How Hard I Try (Demo).wav
Pre-gap length 0:00:02.00
Peak level 73.2 %
Track quality 99.9 %
Test CRC 1AC692B5
Copy CRC 1AC692B5
Accurately ripped (confidence 28) [C8082626]
Copy OK
Track 15
Filename 15 - Dense Water Deeper Down.wav
Pre-gap length 0:00:02.00
Peak level 79.4 %
Track quality 100.0 %
Test CRC 7E8ECAFE
Copy CRC 7E8ECAFE
Accurately ripped (confidence 28) [7E4935FE]
Copy OK
Track 16
Filename 16 - This Is A Rebel Song.wav
Pre-gap length 0:00:02.00
Peak level 94.4 %
Track quality 100.0 %
Test CRC 98B01C5D
Copy CRC 98B01C5D
Accurately ripped (confidence 28) [066439E8]
Copy OK
Track 17
Filename 17 - 1000 Mirrors.wav
Pre-gap length 0:00:02.00
Peak level 90.1 %
Track quality 100.0 %
Test CRC 0618CB4A
Copy CRC 0618CB4A
Accurately ripped (confidence 28) [5A064C4E]
Copy OK
Track 18
Filename 18 - Big Bunch Of Junkie Lies.wav
Pre-gap length 0:00:02.00
Peak level 98.8 %
Track quality 100.0 %
Test CRC D57229DF
Copy CRC D57229DF
Accurately ripped (confidence 27) [BF26D6DA]
Copy OK
Track 19
Filename 19 - Song Of Jerusalem.wav
Pre-gap length 0:00:02.00
Peak level 76.5 %
Track quality 100.0 %
Test CRC BB0F70D3
Copy CRC BB0F70D3
Accurately ripped (confidence 26) [F55301FE]
Copy OK
All tracks accurately ripped
No errors occurred
End of status report
Отчет EAC, CD2:
Exact Audio Copy V0.99 prebeta 5 from 4. May 2009
EAC extraction logfile from 23. May 2010, 10:36
Sinead O'Connor / She Who Dwells In The Secret Place Of The Most High Shall Abide Under The Shadow Of The Almighty
Used drive : PLEXTOR DVDR PX-880SA Adapter: 0 ID: 1
Read mode : Secure
Utilize accurate stream : Yes
Defeat audio cache : Yes
Make use of C2 pointers : No
Read offset correction : 6
Overread into Lead-In and Lead-Out : No
Fill up missing offset samples with silence : Yes
Delete leading and trailing silent blocks : No
Null samples used in CRC calculations : Yes
Used interface : Installed external ASPI interface
Gap handling : Appended to previous track
Used output format : User Defined Encoder
Selected bitrate : 1024 kBit/s
Quality : High
Add ID3 tag : No
Command line compressor : C:\Program Files (x86)\Exact Audio Copy\Flac\flac.exe
Additional command line options : -V -8 -T "artist=%a" -T "title=%t" -T "album=%g" -T "date=%y" -T "tracknumber=%n" -T "genre=%m" %s
TOC of the extracted CD
Track | Start | Length | Start sector | End sector
---------------------------------------------------------
1 | 0:00.00 | 3:56.62 | 0 | 17761
2 | 3:56.62 | 3:07.17 | 17762 | 31803
3 | 7:04.04 | 4:25.66 | 31804 | 51744
4 | 11:29.70 | 5:12.64 | 51745 | 75208
5 | 16:42.59 | 4:43.68 | 75209 | 96501
6 | 21:26.52 | 5:40.59 | 96502 | 122060
7 | 27:07.36 | 5:30.38 | 122061 | 146848
8 | 32:37.74 | 5:41.34 | 146849 | 172457
9 | 38:19.33 | 4:38.41 | 172458 | 193348
10 | 42:57.74 | 5:36.63 | 193349 | 218611
11 | 48:34.62 | 5:12.02 | 218612 | 242013
12 | 53:46.64 | 7:32.71 | 242014 | 275984
13 | 61:19.60 | 5:58.25 | 275985 | 302859
Track 1
Filename 01 - Molly Malone.wav
Pre-gap length 0:00:02.00
Peak level 98.8 %
Track quality 100.0 %
Test CRC 9DB325D3
Copy CRC 9DB325D3
Accurately ripped (confidence 26) [B43E7FF0]
Copy OK
Track 2
Filename 02 - Oro Se Do Bheatha 'Bhaile.wav
Peak level 98.8 %
Track quality 100.0 %
Test CRC 12E89D34
Copy CRC 12E89D34
Accurately ripped (confidence 26) [569A62EC]
Copy OK
Track 3
Filename 03 - The Singing Bird.wav
Pre-gap length 0:00:00.01
Peak level 94.4 %
Track quality 100.0 %
Test CRC BA264192
Copy CRC BA264192
Accurately ripped (confidence 26) [03452607]
Copy OK
Track 4
Filename 04 - My Lagan Love.wav
Peak level 94.4 %
Track quality 100.0 %
Test CRC F69BA22C
Copy CRC F69BA22C
Accurately ripped (confidence 26) [55B12160]
Copy OK
Track 5
Filename 05 - I Am Stretched On Your Grave.wav
Peak level 92.2 %
Track quality 99.9 %
Test CRC F69A4B5C
Copy CRC F69A4B5C
Accurately ripped (confidence 26) [213D692B]
Copy OK
Track 6
Filename 06 - Nothing Compares 2 U.wav
Peak level 92.2 %
Track quality 100.0 %
Test CRC 62C3732F
Copy CRC 62C3732F
Accurately ripped (confidence 26) [EA347353]
Copy OK
Track 7
Filename 07 - John I Love You.wav
Peak level 91.2 %
Track quality 100.0 %
Test CRC 4D9F86BA
Copy CRC 4D9F86BA
Accurately ripped (confidence 26) [D419989E]
Copy OK
Track 8
Filename 08 - The Moorlough Shore.wav
Peak level 91.2 %
Track quality 100.0 %
Test CRC 28768C8A
Copy CRC 28768C8A
Accurately ripped (confidence 26) [6F23C3BC]
Copy OK
Track 9
Filename 09 - You Made Me The Thief Of Your Heart.wav
Peak level 91.2 %
Track quality 100.0 %
Test CRC 30D8D25A
Copy CRC 30D8D25A
Accurately ripped (confidence 26) [9B65D49D]
Copy OK
Track 10
Filename 10 - Paddy's Lament.wav
Peak level 91.2 %
Track quality 100.0 %
Test CRC 5929B590
Copy CRC 5929B590
Accurately ripped (confidence 26) [C25C62D4]
Copy OK
Track 11
Filename 11 - Thank You For Hearing Me.wav
Peak level 91.2 %
Track quality 100.0 %
Test CRC 2E6E55D9
Copy CRC 2E6E55D9
Accurately ripped (confidence 26) [D6E60C08]
Copy OK
Track 12
Filename 12 - Fire On Babylon.wav
Peak level 91.2 %
Track quality 99.9 %
Test CRC 1CFC9FE2
Copy CRC 1CFC9FE2
Accurately ripped (confidence 26) [C94FD22A]
Copy OK
Track 13
Filename 13 - The Last Day Of Our Acquaintance.wav
Peak level 91.2 %
Track quality 100.0 %
Test CRC BED113BA
Copy CRC BED113BA
Accurately ripped (confidence 26) [8FD0578F]
Copy OK
All tracks accurately ripped
No errors occurred
End of status report
.cue CD1
REM GENRE Folk/Rock
REM DATE 2003
REM DISCID 15124C13
REM COMMENT "ExactAudioCopy v0.99pb5"
PERFORMER ""
TITLE "She Who Dwells In The Secret Place Of The Most High Shall Abide Under The Sha..."
FILE "01 - Regina Caeli.wav" WAVE
TRACK 01 AUDIO
TITLE "Regina Caeli"
PERFORMER ""
INDEX 01 00:00:00
TRACK 02 AUDIO
TITLE "O Filii Et Filiae"
PERFORMER ""
INDEX 00 01:01:69
FILE "02 - O Filii Et Filiae.wav" WAVE
INDEX 01 00:00:00
TRACK 03 AUDIO
TITLE "My Love I Bring"
PERFORMER ""
INDEX 00 03:12:73
FILE "03 - My Love I Bring.wav" WAVE
INDEX 01 00:00:00
TRACK 04 AUDIO
TITLE "Do Right Woman"
PERFORMER ""
INDEX 00 03:53:54
FILE "04 - Do Right Woman.wav" WAVE
INDEX 01 00:00:00
TRACK 05 AUDIO
TITLE "Love Hurts"
PERFORMER ""
INDEX 00 03:53:04
FILE "05 - Love Hurts.wav" WAVE
INDEX 01 00:00:00
TRACK 06 AUDIO
TITLE "Ain't It A Shame"
PERFORMER ""
INDEX 00 04:01:33
FILE "06 - Ain't It A Shame.wav" WAVE
INDEX 01 00:00:00
TRACK 07 AUDIO
TITLE " Chiquitita"
PERFORMER ""
INDEX 00 04:29:38
FILE "07 - Chiquitita.wav" WAVE
INDEX 01 00:00:00
TRACK 08 AUDIO
TITLE "Brigidine Diana"
PERFORMER ""
INDEX 00 03:48:71
FILE "08 - Brigidine Diana.wav" WAVE
INDEX 01 00:00:00
TRACK 09 AUDIO
TITLE "It's All Good"
PERFORMER ""
INDEX 00 04:12:20
FILE "09 - It's All Good.wav" WAVE
INDEX 01 00:00:00
TRACK 10 AUDIO
TITLE "Love Is Ours (Demo)"
PERFORMER ""
INDEX 00 05:07:28
FILE "10 - Love Is Ours (Demo).wav" WAVE
INDEX 01 00:00:00
TRACK 11 AUDIO
TITLE "A Hundred Thousand Angels"
PERFORMER ""
INDEX 00 04:43:05
FILE "11 - A Hundred Thousand Angels.wav" WAVE
INDEX 01 00:00:00
TRACK 12 AUDIO
TITLE "You Put Your Arms Around Me (Demo)"
PERFORMER ""
INDEX 00 03:18:10
FILE "12 - You Put Your Arms Around Me (Demo).wav" WAVE
INDEX 01 00:00:00
TRACK 13 AUDIO
TITLE "Emma's Song"
PERFORMER ""
INDEX 00 04:57:51
FILE "13 - Emma's Song.wav" WAVE
INDEX 01 00:00:00
TRACK 14 AUDIO
TITLE "No Matter How Hard I Try (Demo)"
PERFORMER ""
INDEX 00 04:20:45
FILE "14 - No Matter How Hard I Try (Demo).wav" WAVE
INDEX 01 00:00:00
TRACK 15 AUDIO
TITLE "Dense Water Deeper Down"
PERFORMER ""
INDEX 00 04:22:25
FILE "15 - Dense Water Deeper Down.wav" WAVE
INDEX 01 00:00:00
TRACK 16 AUDIO
TITLE "This Is A Rebel Song"
PERFORMER ""
INDEX 00 03:32:33
FILE "16 - This Is A Rebel Song.wav" WAVE
INDEX 01 00:00:00
TRACK 17 AUDIO
TITLE "1000 Mirrors"
PERFORMER ""
INDEX 00 03:47:74
FILE "17 - 1000 Mirrors.wav" WAVE
INDEX 01 00:00:00
TRACK 18 AUDIO
TITLE "Big Bunch Of Junkie Lies"
PERFORMER ""
INDEX 00 04:51:24
FILE "18 - Big Bunch Of Junkie Lies.wav" WAVE
INDEX 01 00:00:00
TRACK 19 AUDIO
TITLE "Song Of Jerusalem"
PERFORMER ""
INDEX 00 04:01:38
FILE "19 - Song Of Jerusalem.wav" WAVE
INDEX 01 00:00:00
.cue CD2
REM GENRE Folk/Rock
REM DATE 2003
REM DISCID BD0FC60D
REM COMMENT "ExactAudioCopy v0.99pb5"
PERFORMER "Sinead O'Connor"
TITLE "She Who Dwells In The Secret Place Of The Most High Shall Abide Under The Sha..."
FILE "01 - Molly Malone.wav" WAVE
TRACK 01 AUDIO
TITLE "Molly Malone"
PERFORMER "Sinead O'Connor"
INDEX 01 00:00:00
FILE "02 - Oro Se Do Bheatha 'Bhaile.wav" WAVE
TRACK 02 AUDIO
TITLE "Oro Se Do Bheatha 'Bhaile"
PERFORMER "Sinead O'Connor"
INDEX 01 00:00:00
TRACK 03 AUDIO
TITLE "The Singing Bird"
PERFORMER "Sinead O'Connor"
INDEX 00 03:07:16
FILE "03 - The Singing Bird.wav" WAVE
INDEX 01 00:00:00
FILE "04 - My Lagan Love.wav" WAVE
TRACK 04 AUDIO
TITLE "My Lagan Love"
PERFORMER "Sinead O'Connor"
INDEX 01 00:00:00
FILE "05 - I Am Stretched On Your Grave.wav" WAVE
TRACK 05 AUDIO
TITLE "I Am Stretched On Your Grave"
PERFORMER "Sinead O'Connor"
INDEX 01 00:00:00
FILE "06 - Nothing Compares 2 U.wav" WAVE
TRACK 06 AUDIO
TITLE "Nothing Compares 2 U"
PERFORMER "Sinead O'Connor"
INDEX 01 00:00:00
FILE "07 - John I Love You.wav" WAVE
TRACK 07 AUDIO
TITLE "John I Love You"
PERFORMER "Sinead O'Connor"
INDEX 01 00:00:00
FILE "08 - The Moorlough Shore.wav" WAVE
TRACK 08 AUDIO
TITLE "The Moorlough Shore"
PERFORMER "Sinead O'Connor"
INDEX 01 00:00:00
FILE "09 - You Made Me The Thief Of Your Heart.wav" WAVE
TRACK 09 AUDIO
TITLE "You Made Me The Thief Of Your Heart"
PERFORMER "Sinead O'Connor"
INDEX 01 00:00:00
FILE "10 - Paddy's Lament.wav" WAVE
TRACK 10 AUDIO
TITLE "Paddy's Lament"
PERFORMER "Sinead O'Connor"
INDEX 01 00:00:00
FILE "11 - Thank You For Hearing Me.wav" WAVE
TRACK 11 AUDIO
TITLE "Thank You For Hearing Me"
PERFORMER "Sinead O'Connor"
INDEX 01 00:00:00
FILE "12 - Fire On Babylon.wav" WAVE
TRACK 12 AUDIO
TITLE "Fire On Babylon"
PERFORMER "Sinead O'Connor"
INDEX 01 00:00:00
FILE "13 - The Last Day Of Our Acquaintance.wav" WAVE
TRACK 13 AUDIO
TITLE "The Last Day Of Our Acquaintance"
PERFORMER "Sinead O'Connor"
INDEX 01 00:00:00
Доп. информация:
Источник - другой трекер. Имя релизера восстановить не удалось.
2005 - Collaborations
Год выпуска: 2005
Продолжительность: 1:19:27
Формат: FLAC (tracks + .cue)
Трэклист:
01. Special Cases (Radio Edit) (3:49)
02. 1000 Mirrors (4:54)
03. Empire (5:50)
04. Guide Me God (3:32)
05. Visions of You (4:22)
06. Release (Album Edit) (4:15)
07. Wake up and Make Love with Me (4:59)
08. Kingdom of Rain (Album Version) (5:52)
09. I'm Not Your Baby (5:50)
10. Tears From the Moon (Album Version) (4:19)
11. Blood of Eden (Radio Edit) (5:06)
12. Harbour (6:26)
13. Up in Arms (3:40)
14. It's All Good (4:23)
15. Heroine (Theme from 'Captive') (4:25)
16. Monkey in Winter (5:02)
17. All Kinds of Everything (2:44)
Отчет EAC:
EAC extraction logfile from 2. May 2006, 20:18 for CD
VA / Sinйad O'Conner - Collaborations
Used drive : PIONEER DVD-RW DVR-110 Adapter: 2 ID: 0
Read mode : Secure with NO C2, accurate stream, disable cache
Read offset correction : 48
Overread into Lead-In and Lead-Out : No
Used output format : flac.exe (User Defined Encoder)
320 kBit/s
Additional command line options : -8 -V -T "artist=%a" -T "title=%t" -T "album=%g" -T "date=%y" -T "tracknumber=%n" -T "genre=%m" -T "comment=FlacDog Rips" %s
Other options :
Fill up missing offset samples with silence : Yes
Delete leading and trailing silent blocks : No
Installed external ASPI interface
Track 1
Filename 01. Massive Attack - Special Cases (Radio Edit).flac
Pre-gap length 0:00:02.00
Peak level 99.9 %
Track quality 100.0 %
Test CRC 378BA75C
Copy CRC 378BA75C
Copy OK
Track 2
Filename 02. Asian Dub Foundation feat. Sinйad O'Connor - 1000 Mirrors.flac
Pre-gap length 0:00:00.58
Peak level 100.0 %
Track quality 99.9 %
Test CRC F2A87B2C
Copy CRC F2A87B2C
Copy OK
Track 3
Filename 03. Bomb the Bass feat. Sinйad O'Connor & Benjamin Zephaniah - Empire.flac
Pre-gap length 0:00:00.58
Peak level 98.6 %
Track quality 100.0 %
Test CRC FD751562
Copy CRC FD751562
Copy OK
Track 4
Filename 04. Ghostland - Guide Me God.flac
Pre-gap length 0:00:00.58
Peak level 98.8 %
Track quality 100.0 %
Test CRC 8666E0AA
Copy CRC 8666E0AA
Copy OK
Track 5
Filename 05. Jah Wobble's Invaders of the Heart feat. Sinйad O'Connor - Visions of You.flac
Pre-gap length 0:00:00.58
Peak level 98.8 %
Track quality 100.0 %
Test CRC A71F24E1
Copy CRC A71F24E1
Copy OK
Track 6
Filename 06. Afro Celt Sound System - Release (Album Edit).flac
Pre-gap length 0:00:00.58
Peak level 96.8 %
Track quality 100.0 %
Test CRC 146E27D4
Copy CRC 146E27D4
Copy OK
Track 7
Filename 07. Sinйad O'Connor With The Blockheads - Wake up and Make Love with Me.flac
Pre-gap length 0:00:00.58
Peak level 96.4 %
Track quality 100.0 %
Test CRC 53BDEFE5
Copy CRC 53BDEFE5
Copy OK
Track 8
Filename 08. The The - Kingdom of Rain (Album Version).flac
Pre-gap length 0:00:00.58
Peak level 97.9 %
Track quality 100.0 %
Test CRC C5B983F6
Copy CRC C5B983F6
Copy OK
Track 9
Filename 09. U2 & Sinйad O'Connor - I'm Not Your Baby.flac
Pre-gap length 0:00:00.58
Peak level 100.0 %
Track quality 99.9 %
Test CRC AA5E1EAD
Copy CRC AA5E1EAD
Copy OK
Track 10
Filename 10. Conjure One feat. Sinйad O'Connor - Tears From the Moon (Album Version).flac
Pre-gap length 0:00:00.58
Peak level 99.8 %
Track quality 100.0 %
Test CRC 6BE69A6C
Copy CRC 6BE69A6C
Copy OK
Track 11
Filename 11. Peter Gabriel & Sinйad O'Connor - Blood of Eden (Radio Edit).flac
Pre-gap length 0:00:00.58
Peak level 99.2 %
Track quality 100.0 %
Test CRC C87FF719
Copy CRC C87FF719
Copy OK
Track 12
Filename 12. Moby feat. Sinйad O'Connor - Harbour.flac
Pre-gap length 0:00:00.58
Peak level 100.0 %
Track quality 100.0 %
Test CRC BE766C48
Copy CRC BE766C48
Copy OK
Track 13
Filename 13. Aslan - Up in Arms.flac
Pre-gap length 0:00:00.58
Peak level 99.8 %
Track quality 100.0 %
Test CRC E25E0E2B
Copy CRC E25E0E2B
Copy OK
Track 14
Filename 14. Damien Dempsey feat. Sinйad O'Connor - It's All Good.flac
Pre-gap length 0:00:00.58
Peak level 99.8 %
Track quality 99.9 %
Test CRC 8C0684A2
Copy CRC 8C0684A2
Copy OK
Track 15
Filename 15. The Edge & Sinйad O'Connor - Heroine (Theme from 'Captive').flac
Pre-gap length 0:00:00.58
Peak level 98.0 %
Track quality 100.0 %
Test CRC 95DF5C5E
Copy CRC 95DF5C5E
Copy OK
Track 16
Filename 16. The Colourfield feat. Sinйad O'Connor - Monkey in Winter.flac
Pre-gap length 0:00:00.58
Peak level 99.0 %
Track quality 100.0 %
Test CRC B7A9C01B
Copy CRC B7A9C01B
Copy OK
Track 17
Filename 17. Sinйad O'Connor & Terry Hall - All Kinds of Everything.flac
Pre-gap length 0:00:00.58
Peak level 98.8 %
Track quality 99.8 %
Test CRC 7B2EFE33
Copy CRC 7B2EFE33
Copy OK
No errors occured
End of status report
Доп. информация:
Источник - другой трекер. Сканов нет. Релизер - n0op.
2005 - Throw Down Your Arms
Год выпуска: 2005
Продолжительность: 0:47:25
Формат: APE (image + .cue)
Трэклист:
01. Jah Nuh Dead (3:21)
02. Marcus Garvey (3:28)
03. Door Peep (3:23)
04. He Prayed (3:28)
05. Y Mas Gan (3:49)
06. Curly Locks (4:22)
07. Vampire (4:02)
08. Prophet Has Arise (4:26)
09. Downpressor Man (5:09)
10. Throw Down Your Arms (4:13)
11. Untold Stories (3:40)
12. War (4:05)
Отчет EAC:
Отчёт EAC об извлечении, выполненном 3. января 2006, 15:21 для диска:
Sinead O'Connor / Throw Down Your Arms
Дисковод: HL-DT-STDVD-ROM GDR8163B Adapter: 0 ID: 0
Режим чтения: Достоверный (C2: нет, Точный поток: да, Отключение кэша: да)
Коррекция смещения при чтении: 102
Способность читать области Lead-in и Lead-out : Нет
Выходной формат: Внутренние WAV-операции
44.100 Гц; 16 бит; стерео
Другие параметры:
Заполнение пропущенных сэмплов тишиной : Да
Удаление блоков с тишиной в начале и конце : Нет
Встроенный Win32-интерфейс для Win NT/2000
Характеристики диапазона извлечения и сообщения об ошибках
Выбранный диапазон
Имя файла D:\iso\Sinead.O'Connor\2005-Throw.Down.Your.Arms\CDImage.wav
Пиковый уровень 98.0 %
Качество диапазона 100.0 %
CRC FC6111E5
Копирование... OK
Ошибок не произошло
Конец отчёта
Доп. информация:
Источник - ослосеть. Сканов нет. Имя релизера забыто.
2007 - Theology (2CD)
Год выпуска: 2007
Продолжительность: 0:40:55 + 0:50:00
Формат: FLAC (tracks + .cue)
Трэклист CD1
01. Something Beautiful (Dublin Sessions) (5:29)
02. We People Who Are Darker (Dublin Sessions) (3:56)
03. Out Of The Depths (Dublin Sessions) (5:06)
04. Dark I Am Yet Lovely (Dublin Sessions) (4:11)
05. If You Had A Vineyard (Dublin Sessions) (6:18)
06. Watcher Of Men (Dublin Sessions) (2:34)
07. 33 (Dublin Sessions) (2:33)
08. The Glory Of Jah (Dublin Sessions) (3:32)
09. Whomsoever Dwells (Dublin Sessions) (2:53)
10. Rivers Of Babylon (Dublin Sessions) (3:39)
11. Hosanna Filio David (Dublin Sessions) (0:44)
Трэклист CD2
01. Something Beautiful (London Sessions) (5:15)
02. We People Who Are Darker Than Blue (London Sessions) (4:25)
03. Out Of The Depths (London Sessions) (5:03)
04. 33 (London Sessions) (2:43)
05. Dark I am Yet Lovely (London Sessions) (3:31)
06. I Don't Know How To Love Him (London Sessions) (4:13)
07. If You Had A Vineyard (London Sessions) (6:34)
08. The Glory Of Jah (London Sessions) (4:56)
09. Watcher Of Men (London Sessions) (3:18)
10. Whomsoever Dwells (London Sessions) (5:34)
11. Rivers Of Babylon (London Sessions) (4:28)
Отчет EAC, CD1:
EAC extraction logfile from 2. August 2007, 10:36 for CD
Sinead O'Connor / Theology (CD 1 - Dublin Sessions)
Used drive : SONY DVD RW AW-G170A Adapter: 0 ID: 0
Read mode : Secure with NO C2, accurate stream, disable cache
Read offset correction : 48
Overread into Lead-In and Lead-Out : No
Used output format : C:\Program Files\Exact Audio Copy\flac.exe (User Defined Encoder)
192 kBit/s
Additional command line options : -8 -A tukey(0.25) -A gauss(0.1875) -b 4096 -V -T "artist=%a" -T "title=%t" -T "album=%g" -T "date=%y" -T "tracknumber=%n" -T "genre=%m" %s --sector-align
Other options :
Fill up missing offset samples with silence : Yes
Delete leading and trailing silent blocks : No
Installed external ASPI interface
Track 1
Filename C:\Documents and Settings\My Documents\Torrents\OiNK\Upload\Sinead O'Connor - Theology (FLAC)\CD 1 - Dublin Sessions\01 - Sinead O'Connor - Something Beautiful.wav
Pre-gap length 0:00:02.00
Peak level 99.6 %
Track quality 100.0 %
Test CRC DFD5EB5E
Copy CRC DFD5EB5E
Copy OK
Track 2
Filename C:\Documents and Settings\My Documents\Torrents\OiNK\Upload\Sinead O'Connor - Theology (FLAC)\CD 1 - Dublin Sessions\02 - Sinead O'Connor - We People Who Are Darker.wav
Pre-gap length 0:00:04.09
Peak level 95.3 %
Track quality 99.9 %
Test CRC 490077D0
Copy CRC 490077D0
Copy OK
Track 3
Filename C:\Documents and Settings\My Documents\Torrents\OiNK\Upload\Sinead O'Connor - Theology (FLAC)\CD 1 - Dublin Sessions\03 - Sinead O'Connor - Out Of The Depths.wav
Pre-gap length 0:00:02.58
Peak level 98.3 %
Track quality 100.0 %
Test CRC 75DF1442
Copy CRC 75DF1442
Copy OK
Track 4
Filename C:\Documents and Settings\My Documents\Torrents\OiNK\Upload\Sinead O'Connor - Theology (FLAC)\CD 1 - Dublin Sessions\04 - Sinead O'Connor - Dark I Am Yet Lovely.wav
Pre-gap length 0:00:02.50
Peak level 99.5 %
Track quality 100.0 %
Test CRC 5EAFA308
Copy CRC 5EAFA308
Copy OK
Track 5
Filename C:\Documents and Settings\My Documents\Torrents\OiNK\Upload\Sinead O'Connor - Theology (FLAC)\CD 1 - Dublin Sessions\05 - Sinead O'Connor - If You Had A Vineyard.wav
Pre-gap length 0:00:02.29
Peak level 99.6 %
Track quality 100.0 %
Test CRC CDBD7C2B
Copy CRC CDBD7C2B
Copy OK
Track 6
Filename C:\Documents and Settings\My Documents\Torrents\OiNK\Upload\Sinead O'Connor - Theology (FLAC)\CD 1 - Dublin Sessions\06 - Sinead O'Connor - Watcher Of Men.wav
Peak level 99.4 %
Track quality 99.9 %
Test CRC 6475E39A
Copy CRC 6475E39A
Copy OK
Track 7
Filename C:\Documents and Settings\My Documents\Torrents\OiNK\Upload\Sinead O'Connor - Theology (FLAC)\CD 1 - Dublin Sessions\07 - Sinead O'Connor - 33.wav
Pre-gap length 0:00:03.02
Peak level 78.3 %
Track quality 100.0 %
Test CRC 15D32A35
Copy CRC 15D32A35
Copy OK
Track 8
Filename C:\Documents and Settings\My Documents\Torrents\OiNK\Upload\Sinead O'Connor - Theology (FLAC)\CD 1 - Dublin Sessions\08 - Sinead O'Connor - The Glory Of Jah.wav
Pre-gap length 0:00:03.90
Peak level 98.6 %
Track quality 100.0 %
Test CRC 3B038630
Copy CRC 3B038630
Copy OK
Track 9
Filename C:\Documents and Settings\My Documents\Torrents\OiNK\Upload\Sinead O'Connor - Theology (FLAC)\CD 1 - Dublin Sessions\09 - Sinead O'Connor - Whomsoever Dwells.wav
Pre-gap length 0:00:02.65
Peak level 99.6 %
Track quality 100.0 %
Test CRC 46D23B6C
Copy CRC 46D23B6C
Copy OK
Track 10
Filename C:\Documents and Settings\My Documents\Torrents\OiNK\Upload\Sinead O'Connor - Theology (FLAC)\CD 1 - Dublin Sessions\10 - Sinead O'Connor - Rivers Of Babylon.wav
Pre-gap length 0:00:03.49
Peak level 99.6 %
Track quality 99.9 %
Test CRC DC3CE74D
Copy CRC DC3CE74D
Copy OK
Track 11
Filename C:\Documents and Settings\My Documents\Torrents\OiNK\Upload\Sinead O'Connor - Theology (FLAC)\CD 1 - Dublin Sessions\11 - Sinead O'Connor - Hosanna Filio David.wav
Pre-gap length 0:01:02.12
Peak level 88.8 %
Track quality 100.0 %
Test CRC 92DE93A5
Copy CRC 92DE93A5
Copy OK
No errors occured
End of status report
Отчет EAC, CD2:
EAC extraction logfile from 2. August 2007, 11:13 for CD
Sinead O'Connor / Theology (CD 2 - London Sessions)
Used drive : SONY DVD RW AW-G170A Adapter: 0 ID: 0
Read mode : Secure with NO C2, accurate stream, disable cache
Read offset correction : 48
Overread into Lead-In and Lead-Out : No
Used output format : C:\Program Files\Exact Audio Copy\flac.exe (User Defined Encoder)
192 kBit/s
Additional command line options : -8 -A tukey(0.25) -A gauss(0.1875) -b 4096 -V -T "artist=%a" -T "title=%t" -T "album=%g" -T "date=%y" -T "tracknumber=%n" -T "genre=%m" %s --sector-align
Other options :
Fill up missing offset samples with silence : Yes
Delete leading and trailing silent blocks : No
Installed external ASPI interface
Track 1
Filename C:\Documents and Settings\My Documents\Torrents\OiNK\Upload\Sinead O'Connor - Theology (FLAC)\CD 2 - London Sessions\01 - Sinead O'Connor - Something Beautiful.wav
Pre-gap length 0:00:02.00
Peak level 98.8 %
Track quality 100.0 %
Test CRC 46F7D573
Copy CRC 46F7D573
Copy OK
Track 2
Filename C:\Documents and Settings\My Documents\Torrents\OiNK\Upload\Sinead O'Connor - Theology (FLAC)\CD 2 - London Sessions\02 - Sinead O'Connor - We People Who Are Darker Than Blue.wav
Pre-gap length 0:00:01.72
Peak level 98.8 %
Track quality 100.0 %
Test CRC 711EB2A0
Copy CRC 711EB2A0
Copy OK
Track 3
Filename C:\Documents and Settings\My Documents\Torrents\OiNK\Upload\Sinead O'Connor - Theology (FLAC)\CD 2 - London Sessions\03 - Sinead O'Connor - Out Of The Depths.wav
Pre-gap length 0:00:01.62
Peak level 100.0 %
Track quality 100.0 %
Test CRC 16CC7055
Copy CRC 16CC7055
Copy OK
Track 4
Filename C:\Documents and Settings\My Documents\Torrents\OiNK\Upload\Sinead O'Connor - Theology (FLAC)\CD 2 - London Sessions\04 - Sinead O'Connor - 33.wav
Pre-gap length 0:00:03.82
Peak level 98.8 %
Track quality 99.9 %
Test CRC B0AB2A1A
Copy CRC B0AB2A1A
Copy OK
Track 5
Filename C:\Documents and Settings\My Documents\Torrents\OiNK\Upload\Sinead O'Connor - Theology (FLAC)\CD 2 - London Sessions\05 - Sinead O'Connor - Dark I am Yet Lovely.wav
Pre-gap length 0:00:02.40
Peak level 88.0 %
Track quality 100.0 %
Test CRC 36099E88
Copy CRC 36099E88
Copy OK
Track 6
Filename C:\Documents and Settings\My Documents\Torrents\OiNK\Upload\Sinead O'Connor - Theology (FLAC)\CD 2 - London Sessions\06 - Sinead O'Connor - I Don't Know How To Love Him.wav
Peak level 98.8 %
Track quality 99.9 %
Test CRC 9BE450DD
Copy CRC 9BE450DD
Copy OK
Track 7
Filename C:\Documents and Settings\My Documents\Torrents\OiNK\Upload\Sinead O'Connor - Theology (FLAC)\CD 2 - London Sessions\07 - Sinead O'Connor - If You Had A Vineyard.wav
Peak level 98.8 %
Track quality 100.0 %
Test CRC 7FAE3779
Copy CRC 7FAE3779
Copy OK
Track 8
Filename C:\Documents and Settings\My Documents\Torrents\OiNK\Upload\Sinead O'Connor - Theology (FLAC)\CD 2 - London Sessions\08 - Sinead O'Connor - The Glory Of Jah.wav
Pre-gap length 0:00:01.77
Peak level 98.8 %
Track quality 100.0 %
Test CRC 85631CE5
Copy CRC 85631CE5
Copy OK
Track 9
Filename C:\Documents and Settings\My Documents\Torrents\OiNK\Upload\Sinead O'Connor - Theology (FLAC)\CD 2 - London Sessions\09 - Sinead O'Connor - Watcher Of Men.wav
Pre-gap length 0:00:01.00
Peak level 98.8 %
Track quality 100.0 %
Test CRC E8AB0083
Copy CRC E8AB0083
Copy OK
Track 10
Filename C:\Documents and Settings\My Documents\Torrents\OiNK\Upload\Sinead O'Connor - Theology (FLAC)\CD 2 - London Sessions\10 - Sinead O'Connor - Whomsoever Dwells.wav
Pre-gap length 0:00:01.26
Peak level 98.8 %
Track quality 100.0 %
Test CRC 46DB4430
Copy CRC 46DB4430
Copy OK
Track 11
Filename C:\Documents and Settings\My Documents\Torrents\OiNK\Upload\Sinead O'Connor - Theology (FLAC)\CD 2 - London Sessions\11 - Sinead O'Connor - Rivers Of Babylon.wav
Pre-gap length 0:00:01.00
Peak level 98.8 %
Track quality 100.0 %
Test CRC 7C849EB9
Copy CRC 7C849EB9
Copy OK
No errors occured
End of status report
Доп. информация:
Источник - ослосеть. Сканов нет. Имя релизера забыто.
PS Моя искренняя признательность GoodWin71 и formyka за помощь в подготовке релиза!
PPS Логи проверок выделены в отдельное .