(Contemporary Jazz) Renaud Garcia-Fons, Gérard Marais - Acoustic Songs {Label Hopi} - 2000, FLAC (tracks+.cue), lossless





Жанр: Contemporary Jazz
Год выпуска диска: 2000
Производитель диска: France
Аудио кодек: FLAC
Тип рипа: tracks+.cue
Битрейт аудио: lossless
Продолжительность: 47:40
1. Tom's dinner (Suzanne Vega) - 3.46
2. Lonely woman (Ornette Coleman) - 7.24
Transversales
3. All the things you are (Jerome Kern) - 1.43
4. Call of the dunes (Renaud Garcia-Fons) - 3.31
5. Pannonica (Thelonious Monk) - 6.17
6. Voleur de nuit (Gérard Marais / Renaud Garcia-Fons) - 5.39
7. Un petit banc au soleil (Renaud Garcia-Fons) - 3.46
8. Le sourire de bourvil (Gérard Marais / Renaud Garcia-Fons) - 4.39
9. Misterioso (Thelonious Monk) - 4.23
10. Voiture bar (Gérard Marais / Renaud Garcia-Fons) - 3.32
11. Rain in the church (Gérard Marais / Renaud Garcia-Fons) - 2.33
Gérard Marais - guitars
Renaud Garcia-Fons - double bass
(c) 2000 Label Hopi
HOP 200024
EAC extraction logfile from 8. November 2008, 9:44
Exact Audio Copy V0.99 prebeta 4 from 23. January 2008
EAC extraction logfile from 8. November 2008, 9:44
Renaud Garcia-Fons, Gerard Marais / Acoustic Songs
Used drive : PLEXTOR DVDR PX-760A Adapter: 0 ID: 0
Read mode : Secure
Utilize accurate stream : Yes
Defeat audio cache : Yes
Make use of C2 pointers : No
Read offset correction : 30
Overread into Lead-In and Lead-Out : Yes
Fill up missing offset samples with silence : Yes
Delete leading and trailing silent blocks : No
Null samples used in CRC calculations : Yes
Used interface : Native Win32 interface for Win NT & 2000
Gap handling : Appended to previous track
Used output format : User Defined Encoder
Selected bitrate : 128 kBit/s
Quality : High
Add ID3 tag : No
Command line compressor : C:\Program Files\FLAC\flac.exe
Additional command line options : -8 -V -T "ARTIST=%a" -T "TITLE=%t" -T "ALBUM=%g" -T "DATE=%y" -T "TRACKNUMBER=%n" -T "GENRE=%m" -T "COMMENT=EAC FLAC -8" %s
TOC of the extracted CD
Track | Start | Length | Start sector | End sector
---------------------------------------------------------
1 | 0:00.00 | 3:49.17 | 0 | 17191
2 | 3:49.17 | 7:26.70 | 17192 | 50711
3 | 11:16.12 | 1:43.70 | 50712 | 58506
4 | 13:00.07 | 3:35.08 | 58507 | 74639
5 | 16:35.15 | 6:19.70 | 74640 | 103134
6 | 22:55.10 | 5:40.30 | 103135 | 128664
7 | 28:35.40 | 3:49.40 | 128665 | 145879
8 | 32:25.05 | 4:39.52 | 145880 | 166856
9 | 37:04.57 | 4:27.05 | 166857 | 186886
10 | 41:31.62 | 3:35.13 | 186887 | 203024
11 | 45:07.00 | 2:33.02 | 203025 | 214501
Track 1
Filename H:\Renaud Garcia-Fons, Gerard Marais - Acoustic Songs (2000) [FLAC]\01 - Tom's dinner.wav
Pre-gap length 0:00:02.00
Peak level 98.0 %
Track quality 100.0 %
Test CRC 45BD3563
Copy CRC 45BD3563
Accurately ripped (confidence 1) [C44EAD8F]
Copy OK
Track 2
Filename H:\Renaud Garcia-Fons, Gerard Marais - Acoustic Songs (2000) [FLAC]\02 - Lonely woman.wav
Pre-gap length 0:00:02.62
Peak level 98.0 %
Track quality 99.9 %
Test CRC 34D688DF
Copy CRC 34D688DF
Accurately ripped (confidence 1) [3B24C267]
Copy OK
Track 3
Filename H:\Renaud Garcia-Fons, Gerard Marais - Acoustic Songs (2000) [FLAC]\03 - All the things you are.wav
Pre-gap length 0:00:02.32
Peak level 98.0 %
Track quality 99.8 %
Test CRC 13C5CFA4
Copy CRC 13C5CFA4
Accurately ripped (confidence 1) [C1CFEF07]
Copy OK
Track 4
Filename H:\Renaud Garcia-Fons, Gerard Marais - Acoustic Songs (2000) [FLAC]\04 - Call of the dunes.wav
Peak level 100.0 %
Track quality 100.0 %
Test CRC 122A65D1
Copy CRC 122A65D1
Accurately ripped (confidence 1) [817D806D]
Copy OK
Track 5
Filename H:\Renaud Garcia-Fons, Gerard Marais - Acoustic Songs (2000) [FLAC]\05 - Pannonica.wav
Pre-gap length 0:00:03.20
Peak level 98.0 %
Track quality 100.0 %
Test CRC 1676203E
Copy CRC 1676203E
Accurately ripped (confidence 1) [F1E207F4]
Copy OK
Track 6
Filename H:\Renaud Garcia-Fons, Gerard Marais - Acoustic Songs (2000) [FLAC]\06 - Voleur de nuit.wav
Pre-gap length 0:00:02.23
Peak level 98.0 %
Track quality 100.0 %
Test CRC 931FBC79
Copy CRC 931FBC79
Accurately ripped (confidence 1) [937591A6]
Copy OK
Track 7
Filename H:\Renaud Garcia-Fons, Gerard Marais - Acoustic Songs (2000) [FLAC]\07 - Un petit banc au soleil.wav
Pre-gap length 0:00:00.35
Peak level 98.0 %
Track quality 100.0 %
Test CRC D400D104
Copy CRC D400D104
Accurately ripped (confidence 1) [8F0F5541]
Copy OK
Track 8
Filename H:\Renaud Garcia-Fons, Gerard Marais - Acoustic Songs (2000) [FLAC]\08 - Le sourire de Bourvil.wav
Pre-gap length 0:00:03.08
Peak level 98.0 %
Track quality 100.0 %
Test CRC FAC15083
Copy CRC FAC15083
Accurately ripped (confidence 1) [CB598BE3]
Copy OK
Track 9
Filename H:\Renaud Garcia-Fons, Gerard Marais - Acoustic Songs (2000) [FLAC]\09 - Misterioso.wav
Peak level 98.0 %
Track quality 100.0 %
Test CRC A86481C7
Copy CRC A86481C7
Accurately ripped (confidence 1) [A6C7947D]
Copy OK
Track 10
Filename H:\Renaud Garcia-Fons, Gerard Marais - Acoustic Songs (2000) [FLAC]\10 - Voiture bar.wav
Pre-gap length 0:00:03.25
Peak level 98.0 %
Track quality 99.9 %
Test CRC 7C7BA588
Copy CRC 7C7BA588
Accurately ripped (confidence 1) [C5B5C458]
Copy OK
Track 11
Filename H:\Renaud Garcia-Fons, Gerard Marais - Acoustic Songs (2000) [FLAC]\11 - Rain in the church.wav
Pre-gap length 0:00:02.28
Peak level 98.0 %
Track quality 100.0 %
Test CRC 8A2083A8
Copy CRC 8A2083A8
Accurately ripped (confidence 1) [B84E047D]
Copy OK
All tracks accurately ripped
No errors occurred
End of status report
CUE
REM GENRE Jazz
REM DATE 2000
REM DISCID AE0B2C0B
REM COMMENT "ExactAudioCopy v0.99pb4"
PERFORMER "Renaud Garcia-Fons, Gérard Marais"
TITLE "Acoustic Songs"
FILE "01 - Tom's dinner.wav" WAVE
TRACK 01 AUDIO
TITLE "Tom's dinner"
PERFORMER "Renaud Garcia-Fons, Gérard Marais"
INDEX 01 00:00:00
TRACK 02 AUDIO
TITLE "Lonely woman"
PERFORMER "Renaud Garcia-Fons, Gérard Marais"
INDEX 00 03:46:30
FILE "02 - Lonely woman.wav" WAVE
INDEX 01 00:00:00
TRACK 03 AUDIO
TITLE "All the things you are"
PERFORMER "Renaud Garcia-Fons, Gérard Marais"
INDEX 00 07:24:38
FILE "03 - All the things you are.wav" WAVE
INDEX 01 00:00:00
FILE "04 - Call of the dunes.wav" WAVE
TRACK 04 AUDIO
TITLE "Call of the dunes"
PERFORMER "Renaud Garcia-Fons, Gérard Marais"
INDEX 01 00:00:00
TRACK 05 AUDIO
TITLE "Pannonica"
PERFORMER "Renaud Garcia-Fons, Gérard Marais"
INDEX 00 03:31:63
FILE "05 - Pannonica.wav" WAVE
INDEX 01 00:00:00
TRACK 06 AUDIO
TITLE "Voleur de nuit"
PERFORMER "Renaud Garcia-Fons, Gérard Marais"
INDEX 00 06:17:47
FILE "06 - Voleur de nuit.wav" WAVE
INDEX 01 00:00:00
TRACK 07 AUDIO
TITLE "Un petit banc au soleil"
PERFORMER "Renaud Garcia-Fons, Gérard Marais"
INDEX 00 05:39:70
FILE "07 - Un petit banc au soleil.wav" WAVE
INDEX 01 00:00:00
TRACK 08 AUDIO
TITLE "Le sourire de Bourvil"
PERFORMER "Renaud Garcia-Fons, Gérard Marais"
INDEX 00 03:46:32
FILE "08 - Le sourire de Bourvil.wav" WAVE
INDEX 01 00:00:00
FILE "09 - Misterioso.wav" WAVE
TRACK 09 AUDIO
TITLE "Misterioso"
PERFORMER "Renaud Garcia-Fons, Gérard Marais"
INDEX 01 00:00:00
TRACK 10 AUDIO
TITLE "Voiture bar"
PERFORMER "Renaud Garcia-Fons, Gérard Marais"
INDEX 00 04:23:55
FILE "10 - Voiture bar.wav" WAVE
INDEX 01 00:00:00
TRACK 11 AUDIO
TITLE "Rain in the church"
PERFORMER "Renaud Garcia-Fons, Gérard Marais"
INDEX 00 03:32:60
FILE "11 - Rain in the church.wav" WAVE
INDEX 01 00:00:00
Собственный рип с оригинального издания.
В комплекте полный набор сканов PNG/300dpi.