(Classical, Violin) Joshua Bell - Chausson, Ravel, Faure, Debussy, Franck (feat. Thibaudet, Isserlis, Takacs Quartet) - 2005, APE (image+.cue), lossless


Жанр: Classical, Violin
Год выпуска диска: 2005
Производитель диска: Decca, UK
Аудио кодек: APE
Тип рипа: image+.cue
Битрейт аудио: lossless
Продолжительность: 01:04:44 + 01:03:03
Трэклист:
CD 1
01-04 Gabriel Faure - Violin Sonata No. 1 in A major, Op. 13
05-07 Claude Debussy - Violin Sonata in G minor
08-11 Cesar Franck - Violin Sonata in A major
CD 2
01-04 Ernest Chausson - Concert in D major, Op. 21
05-08 Maurice Ravel - Trio in A minor
Доп. информация:
Joshua Bell - violin,
Jean-Yves Thibaudet - piano,
Stephen Isserlis - cello (CD 2 05-08),
Takacs Quartet (CD 2 01-04):
Gabor Takacs-Nagy - 1st violin,
Karoly Schranz - 2nd violin,
Gabor Ormai - viola,
Andras Fejer - cello
CD 1: May 1989
St. Barnabas, North Finchley
CD 2: June 1989
EMI Studios, Abbey Road, London
Скачано: из e2k
CD 1: Отчет EAC (не мой!)
Exact Audio Copy V0.99 prebeta 3 from 28. July 2007
EAC extraction logfile from 25. April 2008, 14:31
Bell, Joshua; Thibaudet, Jean-Yves / Faure, Debussy, Franck: Violin Sonatas
Used drive : HL-DT-STCD-RW GCE-8527B Adapter: 0 ID: 1
Read mode : Secure
Utilize accurate stream : Yes
Defeat audio cache : Yes
Make use of C2 pointers : Yes
Read offset correction : 6
Overread into Lead-In and Lead-Out : No
Fill up missing offset samples with silence : Yes
Delete leading and trailing silent blocks : No
Null samples used in CRC calculations : No
Used interface : Native Win32 interface for Win NT & 2000
Used output format : Internal WAV Routines
Sample format : 44.100 Hz; 16 Bit; Stereo
TOC of the extracted CD
Track | Start | Length | Start sector | End sector
---------------------------------------------------------
1 | 0:00.33 | 7:29.50 | 33 | 33757
2 | 7:30.08 | 7:10.15 | 33758 | 66022
3 | 14:40.23 | 3:50.25 | 66023 | 83297
4 | 18:30.48 | 5:25.60 | 83298 | 107732
5 | 23:56.33 | 4:47.05 | 107733 | 129262
6 | 28:43.38 | 4:19.25 | 129263 | 148712
7 | 33:02.63 | 4:14.67 | 148713 | 167829
8 | 37:17.55 | 6:08.73 | 167830 | 195502
9 | 43:26.53 | 8:04.40 | 195503 | 231842
10 | 51:31.18 | 7:07.47 | 231843 | 263914
11 | 58:38.65 | 6:04.27 | 263915 | 291241
Range status and errors
Selected range
Filename D:\Temporal\cd 1\Bell, Joshua; Thibaudet, Jean-Yves - Faure, Debussy, Franck Violin Sonatas.wav
Peak level 95.1 %
Range quality 100.0 %
Copy CRC F0B42C61
Copy OK
No errors occurred
AccurateRip summary
Track 1 accurately ripped (confidence 1) [D76897A9]
Track 2 accurately ripped (confidence 1) [6968905B]
Track 3 accurately ripped (confidence 1) [2A03022E]
Track 4 accurately ripped (confidence 1) [46B5B2B7]
Track 5 accurately ripped (confidence 1) [B2CF74B4]
Track 6 accurately ripped (confidence 1) [BC4B3720]
Track 7 accurately ripped (confidence 1) [A4ED7021]
Track 8 accurately ripped (confidence 1) [AFB777F3]
Track 9 accurately ripped (confidence 1) [2F55C684]
Track 10 accurately ripped (confidence 1) [812C4949]
Track 11 accurately ripped (confidence 1) [679B601F]
All tracks accurately ripped
End of status report
CD 2: Отчет EAC (не мой!)
Exact Audio Copy V0.99 prebeta 3 from 28. July 2007
EAC extraction logfile from 25. April 2008, 14:39
Ravel Chausson / Concert & Trio
Used drive : HL-DT-STCD-RW GCE-8527B Adapter: 0 ID: 1
Read mode : Secure
Utilize accurate stream : Yes
Defeat audio cache : Yes
Make use of C2 pointers : Yes
Read offset correction : 6
Overread into Lead-In and Lead-Out : No
Fill up missing offset samples with silence : Yes
Delete leading and trailing silent blocks : No
Null samples used in CRC calculations : No
Used interface : Native Win32 interface for Win NT & 2000
Used output format : Internal WAV Routines
Sample format : 44.100 Hz; 16 Bit; Stereo
TOC of the extracted CD
Track | Start | Length | Start sector | End sector
---------------------------------------------------------
1 | 0:00.33 | 13:21.72 | 33 | 60179
2 | 13:22.30 | 4:06.05 | 60180 | 78634
3 | 17:28.35 | 10:07.70 | 78635 | 124229
4 | 27:36.30 | 9:52.53 | 124230 | 168682
5 | 37:29.08 | 9:10.05 | 168683 | 209937
6 | 46:39.13 | 4:01.20 | 209938 | 228032
7 | 50:40.33 | 7:25.22 | 228033 | 261429
8 | 58:05.55 | 4:56.35 | 261430 | 283664
Range status and errors
Selected range
Filename D:\Temporal\cd 2\Ravel Chausson - Concert & Trio.wav
Peak level 96.6 %
Range quality 100.0 %
Copy CRC 93704FBD
Copy OK
No errors occurred
AccurateRip summary
Track 1 accurately ripped (confidence 1) [BC7FCF86]
Track 2 accurately ripped (confidence 1) [014BEB1C]
Track 3 accurately ripped (confidence 1) [E9E0B1C7]
Track 4 accurately ripped (confidence 1) [CCEF4976]
Track 5 accurately ripped (confidence 1) [B5845A90]
Track 6 accurately ripped (confidence 1) [78759625]
Track 7 accurately ripped (confidence 1) [D8AE6D4D]
Track 8 accurately ripped (confidence 1) [8157119E]
All tracks accurately ripped
End of status report