(classical) W.A. Mozart - Eine kleine Nachtmusik, Divertimenti K. 136,137,138 - Berliner Philharmoniker (Herbert von Karajan) [Deutsche Grammophon] - 1966, FLAC (image+.cue), lossless


Berliner Philharmoniker, Herbert von Karajan
Жанр: classical
Год выпуска диска: 1966
Производитель диска: Germany
Label: Deutsche Grammophon
Аудио кодек: FLAC
Тип рипа: image+.cue
Битрейт аудио: lossless
Продолжительность: 60'39
Трэклист:
Eine kleine Nachtmusik g-dur KV525
[01] 1. Allegro [05:22]
[02] 2. Romance. Andante [05:32]
[03] 3. Menuetto. Allegretto [02:22]
[04] 4. Rondo. Allegro [03:15]
Serenata notturna d-dur KV239
[05] 1. Marcia. Maestoso [03:02]
[06] 2. Menuetto [05:01]
[07] 3. Rondeau. Allegretto [04:51]
Divertimento d-dur KV136
[08] 1. Allegro [04:20]
[09] 2. Andante [04:55]
[10] 3. Presto [02:34]
Divertimento d-dur KV137
[11] 1. Andante [05:14]
[12] 2. Allegro di molto [02:20]
[13] 3. Allegro assai [02:46]
Divertimento f-dur KV138 (125c)
[14] 1. Allegro [03:51]
[15] 2. Andante [03:31]
[16] 3. Presto [01:43]
Доп. информация:
Berliner Philharmoniker
HERBERT VON KARAJAN
скрытый текст
Exact Audio Copy V0.99 prebeta 4 from 23. January 2008
Отчёт EAC об извлечении, выполненном 13. августа 2008, 14:34
Mozart / Wolfgang Amadeus Mozart - Eine kleine Nachtmusik - Divertimenti KV 136 - 137 - 138
Дисковод: PLEXTOR DVDR PX-755A Adapter: 1 ID: 0
Режим чтения : Достоверность
Использование точного потока : Да
Отключение кэша аудио : Да
Использование указателей C2 : Нет
Коррекция смещения при чтении : 30
Способность читать области Lead-in и Lead-out : Нет
Заполнение пропущенных сэмплов тишиной : Да
Удаление блоков с тишиной в начале и конце : Нет
При вычислениях CRC использовались нулевые сэмплы : Да
Интерфейс : Установленный внешний ASPI-интерфейс
Выходной формат : Пользовательский кодировщик
Выбранный битрейт : 128 kBit/s
Качество : Высокий
Добавление ID3-тэга : Нет
Утилита сжатия : C:\Program Files\FLAC\flac.exe
Дополнительные параметры : -7 -V -T "ARTIST=%a" -T "TITLE=%t" -T "ALBUM=%g" -T "DATE=%y" -T "TRACKNUMBER=%n" -T "GENRE=%m" -T "COMMENT=EAC FLAC -7" %s
TOC извлечённого CD
Трек | Старт | Длительность | Начальный сектор | Конечный сектор
---------------------------------------------------------------------
1 | 0:00.33 | 5:22.37 | 33 | 24219
2 | 5:22.70 | 5:31.38 | 24220 | 49082
3 | 10:54.33 | 2:22.17 | 49083 | 59749
4 | 13:16.50 | 3:14.58 | 59750 | 74357
5 | 16:31.33 | 3:02.15 | 74358 | 88022
6 | 19:33.48 | 5:01.20 | 88023 | 110617
7 | 24:34.68 | 4:50.40 | 110618 | 132407
8 | 29:25.33 | 4:19.67 | 132408 | 151899
9 | 33:45.25 | 4:55.48 | 151900 | 174072
10 | 38:40.73 | 2:33.35 | 174073 | 185582
11 | 41:14.33 | 5:14.40 | 185583 | 209172
12 | 46:28.73 | 2:19.62 | 209173 | 219659
13 | 48:48.60 | 2:45.48 | 219660 | 232082
14 | 51:34.33 | 3:51.17 | 232083 | 249424
15 | 55:25.50 | 3:30.40 | 249425 | 265214
16 | 58:56.15 | 1:43.18 | 265215 | 272957
Характеристики диапазона извлечения и сообщения об ошибках
Выбранный диапазон
Имя файла D:\riped music\Mozart - Wolfgang Amadeus Mozart - Eine kleine Nachtmusik - Divertimenti KV 136 - 137 - 138.wav
Пиковый уровень 99.9 %
Качество диапазона 99.9 %
CRC копии 8D8E05BB
Копирование... OK
Ошибок не произошло
AccurateRip: сводка
Трек 1 точность не определена (достоверность 11) [E13467E9], AccurateRip вернул [D8FFB7A7]
Трек 2 точность не определена (достоверность 11) [F392E925], AccurateRip вернул [98D7FF26]
Трек 3 точность не определена (достоверность 12) [AC96DA60], AccurateRip вернул [0475FC36]
Трек 4 точность не определена (достоверность 11) [40BE1D28], AccurateRip вернул [6E0424FF]
Трек 5 точность не определена (достоверность 9) [39C18973], AccurateRip вернул [9C01F5CE]
Трек 6 точность не определена (достоверность 8) [46FAC827], AccurateRip вернул [DEF56DB5]
Трек 7 точность не определена (достоверность 9) [C55DF7F9], AccurateRip вернул [8A954637]
Трек 8 точность не определена (достоверность 10) [FCAE6BA4], AccurateRip вернул [2B7CEA1C]
Трек 9 точность не определена (достоверность 10) [FE94FA67], AccurateRip вернул [9DD5FCDE]
Трек 10 точность не определена (достоверность 10) [8F005E79], AccurateRip вернул [7140802D]
Трек 11 точность не определена (достоверность 10) [262BCBAA], AccurateRip вернул [2BEFE90C]
Трек 12 точность не определена (достоверность 11) [A09DB10E], AccurateRip вернул [00C4D95C]
Трек 13 точность не определена (достоверность 11) [141A4DDC], AccurateRip вернул [A9BD875F]
Трек 14 точность не определена (достоверность 10) [5BD6259E], AccurateRip вернул [FB3E49FF]
Трек 15 точность не определена (достоверность 10) [34FB6966], AccurateRip вернул [987129F8]
Трек 16 точность не определена (достоверность 11) [78FA5649], AccurateRip вернул [83E0F9A3]
Ни один трек не прошёл проверки на точность
В вашей базе может быть иной вариант штамповки диска
Конец отчёта
Внутри есть сфотографированные коврики довольно приличного качества.
Приятного прослушивания!
УБЕДИТЕЛЬНАЯ ПРОСЬБА НЕ УХОДИТЬ С РАЗДАЧИ!
Давайте уважать труд этих замечательных людей - релизеров! Ведь они: рипят диски, сжимают их, сканят обложки, оформляют раздачи! И за все это им нужно лишь Ваше "Спаcибо!".