(Canterbury Scene, Prog-Rock) Soft Machine - Alive and Well - 1978 (1990 See For The Miles Rec.), FLAC (tracks+.cue), lossless


Жанр: Canterbury Scene, Prog-Rock
Дата записи: Paris, 1977
Дата выпуска: 1990
Производитель диска, страна: See For The Miles Rec.
Страна исполнителя: UK
Тип: live
Аудио кодек: FLAC
Тип рипа: (tracks + .cue)
Битрейт аудио: lossless
Сканы: Booklet & Back
Продолжительность: 39:06
Источник: torrent
Трэклист:
1. White kite (3:00)
2. Eos (1:22)
3. Odds bullets and blades pt. 1 (2:18)
4. Odds bullets and blades pt. II (2:33)
5. Song of the sunbird (1:24)
6. Puffin (1:18)
7. Huffin (5:12)
8. Number three (2:25)
9. The nodder (7:13)
10. Surrounding silence (4:04)
11. Soft space (8:17)
Об исполнителе:
Об альбоме: -
Состав:
John Marshall: Drums and percussion
Karl Jenkins: Keyboards
John Etheridge: Guitars
Rick Sanders: Violin
Steve Cook: Bass
Рейтинги и премии:
Progarchives - 2,7
Allmusic - 2,5
Мои раздачи на треккере -
Folder content
Soft Machine - Alive and Well (1978) [FLAC]\
01 - White Kite.flac
02 - EOS.flac
03 - Odds Bullets And Blades Pt I.flac
04 - Odds Bullets And Blades Pt II.flac
05 - Song Of The Sunbird.flac
06 - Puffin.flac
07 - Huffin.flac
08 - Number Three.flac
09 - The Nodder.flac
10 - Surrounding Silence.flac
11 - Soft Space.flac
Alive and Well.CUE
Alive and Well.flac.cue
Alive and Well.log
Scans
Soft Machine - Alive and Well.m3u
tau.txt
thumb.jpg
Scans\01.jpg
Scans\02.jpg
Scans\03.jpg
Scans\04.jpg
EAC log
EAC extraction logfile from 3. June 2006, 2:53 for CD
Soft Machine / Alive and Well
Used drive : PIONEER DVD-RW DVR-109 Adapter: 2 ID: 1
Read mode : Secure with NO C2, accurate stream, disable cache
Read offset correction : 48
Overread into Lead-In and Lead-Out : No
Used output format : Internal WAV Routines
44.100 Hz; 16 Bit; Stereo
Use compression offset : 0
Other options :
Fill up missing offset samples with silence : Yes
Delete leading and trailing silent blocks : No
Installed external ASPI interface
Track 1
Filename Q:\Audio Temp\Soft Machine - Alive and Well (1978) [FLAC]\01 - White Kite.wav
Pre-gap length 0:00:02.32
Peak level 40.3 %
Track quality 100.0 %
Test CRC A8305467
Copy CRC A8305467
Copy OK
Track 2
Filename Q:\Audio Temp\Soft Machine - Alive and Well (1978) [FLAC]\02 - EOS.wav
Peak level 71.1 %
Track quality 100.0 %
Test CRC 83C4237F
Copy CRC 83C4237F
Copy OK
Track 3
Filename Q:\Audio Temp\Soft Machine - Alive and Well (1978) [FLAC]\03 - Odds Bullets And Blades Pt I.wav
Peak level 52.7 %
Track quality 99.9 %
Test CRC 861BE8DF
Copy CRC 861BE8DF
Copy OK
Track 4
Filename Q:\Audio Temp\Soft Machine - Alive and Well (1978) [FLAC]\04 - Odds Bullets And Blades Pt II.wav
Peak level 90.7 %
Track quality 100.0 %
Test CRC 8CF7E28D
Copy CRC 8CF7E28D
Copy OK
Track 5
Filename Q:\Audio Temp\Soft Machine - Alive and Well (1978) [FLAC]\05 - Song Of The Sunbird.wav
Peak level 28.2 %
Track quality 100.0 %
Test CRC 5D986215
Copy CRC 5D986215
Copy OK
Track 6
Filename Q:\Audio Temp\Soft Machine - Alive and Well (1978) [FLAC]\06 - Puffin.wav
Peak level 64.9 %
Track quality 100.0 %
Test CRC A45AA6B7
Copy CRC A45AA6B7
Copy OK
Track 7
Filename Q:\Audio Temp\Soft Machine - Alive and Well (1978) [FLAC]\07 - Huffin.wav
Peak level 85.8 %
Track quality 100.0 %
Test CRC D049A9B6
Copy CRC D049A9B6
Copy OK
Track 8
Filename Q:\Audio Temp\Soft Machine - Alive and Well (1978) [FLAC]\08 - Number Three.wav
Peak level 47.0 %
Track quality 100.0 %
Test CRC EC61B23F
Copy CRC EC61B23F
Copy OK
Track 9
Filename Q:\Audio Temp\Soft Machine - Alive and Well (1978) [FLAC]\09 - The Nodder.wav
Peak level 67.3 %
Track quality 100.0 %
Test CRC 33877D4E
Copy CRC 33877D4E
Copy OK
Track 10
Filename Q:\Audio Temp\Soft Machine - Alive and Well (1978) [FLAC]\10 - Surrounding Silence.wav
Peak level 36.2 %
Track quality 100.0 %
Test CRC A6C19F11
Copy CRC A6C19F11
Copy OK
Track 11
Filename Q:\Audio Temp\Soft Machine - Alive and Well (1978) [FLAC]\11 - Soft Space.wav
Peak level 66.5 %
Track quality 99.9 %
Test CRC F823FD48
Copy CRC F823FD48
Copy OK
No errors occured
End of status report
TAU log
4133957494 31829660 01 - White Kite.wav
3203922802 14563628 02 - EOS.wav
1281907951 24366764 03 - Odds Bullets And Blades Pt I.wav
656597536 27024524 04 - Odds Bullets And Blades Pt II.wav
3572959346 14954060 05 - Song Of The Sunbird.wav
2193172739 13888604 06 - Puffin.wav
3710516110 55142684 07 - Huffin.wav
1126858609 25641548 08 - Number Three.wav
2567845293 76393004 09 - The Nodder.wav
2938556874 43178060 10 - Surrounding Silence.wav
3889291891 87804908 11 - Soft Space.wav
auCDtect: CD records authenticity detector, version 0.8.2
Copyright (c) 2004 Oleg Berngardt. All rights reserved.
Copyright (c) 2004 Alexander Djourik. All rights reserved.
------------------------------------------------------------
Processing file: [01 - White Kite.wav]
------------------------------------------------------------
This track looks like CDDA with probability 100%
------------------------------------------------------------
Processing file: [02 - EOS.wav]
------------------------------------------------------------
This track looks like CDDA with probability 100%
------------------------------------------------------------
Processing file: [03 - Odds Bullets And Blades Pt I.wav]
------------------------------------------------------------
This track looks like CDDA with probability 100%
------------------------------------------------------------
Processing file: [04 - Odds Bullets And Blades Pt II.wav]
------------------------------------------------------------
This track looks like CDDA with probability 100%
------------------------------------------------------------
Processing file: [05 - Song Of The Sunbird.wav]
------------------------------------------------------------
Could not qualify the source of this track.
------------------------------------------------------------
Processing file: [06 - Puffin.wav]
------------------------------------------------------------
This track looks like CDDA with probability 100%
------------------------------------------------------------
Processing file: [07 - Huffin.wav]
------------------------------------------------------------
This track looks like CDDA with probability 100%
------------------------------------------------------------
Processing file: [08 - Number Three.wav]
------------------------------------------------------------
This track looks like CDDA with probability 100%
------------------------------------------------------------
Processing file: [09 - The Nodder.wav]
------------------------------------------------------------
This track looks like CDDA with probability 100%
------------------------------------------------------------
Processing file: [10 - Surrounding Silence.wav]
------------------------------------------------------------
Could not qualify the source of this track.
------------------------------------------------------------
Processing file: [11 - Soft Space.wav]
------------------------------------------------------------
This track looks like CDDA with probability 100%
------------------------------------------------------------
Final Conclusion:
------------------------------------------------------------
These tracks looks like CDDA with probability 100%
Я не сидирую все свои раздачи подолгу, только новые (до 3х первых сидов)
Предлагаю скачавшим максимально долго оставаться на раздаче - весь рейтинг будет ваш
Я вернусь, если меня попросят в топике или в ПМ