(New Age, Flute) Diego Modena & Jean-Philippe Audin - Song Of Ocarina (2002), FLAC (image+.cue), lossless


Жанр: New Age, Flute
Год выпуска диска: 2002
Производитель диска: Франция
Аудио кодек: FLAC
Тип рипа: image+.cue
Битрейт аудио: lossless
Продолжительность: 47 minutes 52 seconds
Трэклист:
1. Song Of Ocarina (3:37)
2. Moonlight Reggae (4:41)
3. Implora (Violoncelle, Flute, Ocarina) (3:51)
4. Ocarina Burning (3:36)
5. Girl From Key Biscayne (3:43)
6. Bonecas De Plata (3:28)
7. Hotel La Luna (2:58)
8. Amara (4:07)
9. Song Of Ocarina (Ocarina Solo) (3:39)
10. Montego Bay (3:09)
11. Bag Pipe Reggae (3:34)
12. Implora (Flute Seule) (3:51)
13. A Kiss Of Goodbye (3:38)

Доп. информация:
Отчёт EAC
Exact Audio Copy V0.99 prebeta 4 from 23. January 2008
EAC extraction logfile from 18. June 2008, 20:44
Audin & Modena / Ф­Ч°·Ё°жЈєAudin & Modena °ВНЎ&ДЄµШДЗЎ¶Ocarina МХµСЦ®ёиЎ·
Used drive : SONY DVD RW DRU-190A Adapter: 1 ID: 1
Read mode : Secure
Utilize accurate stream : Yes
Defeat audio cache : Yes
Make use of C2 pointers : No
Read offset correction : 6
Overread into Lead-In and Lead-Out : No
Fill up missing offset samples with silence : Yes
Delete leading and trailing silent blocks : No
Null samples used in CRC calculations : No
Used interface : Native Win32 interface for Win NT & 2000
Used output format : Internal WAV Routines
Sample format : 44.100 Hz; 16 Bit; Stereo
TOC of the extracted CD
Track | Start | Length | Start sector | End sector
---------------------------------------------------------
1 | 0:00.00 | 3:37.54 | 0 | 16328
2 | 3:37.54 | 4:41.03 | 16329 | 37406
3 | 8:18.57 | 3:51.01 | 37407 | 54732
4 | 12:09.58 | 3:35.62 | 54733 | 70919
5 | 15:45.45 | 3:42.70 | 70920 | 87639
6 | 19:28.40 | 3:28.00 | 87640 | 103239
7 | 22:56.40 | 2:57.69 | 103240 | 116583
8 | 25:54.34 | 4:07.00 | 116584 | 135108
9 | 30:01.34 | 3:38.54 | 135109 | 151512
10 | 33:40.13 | 3:09.09 | 151513 | 165696
11 | 36:49.22 | 3:34.06 | 165697 | 181752
12 | 40:23.28 | 3:50.60 | 181753 | 199062
13 | 44:14.13 | 3:37.74 | 199063 | 215411
Range status and errors
Selected range
Filename F:\yizhutingxiao\Audin & Modena °ВНЎ&ДЄµШДЗЎ¶Ocarina МХµСЦ®ёиЎ·\Audin & Modena - Ф­Ч°·Ё°жЈєAudin & Modena °ВНЎ&ДЄµШДЗЎ¶Ocarina МХµСЦ®ёиЎ·.wav
Peak level 98.8 %
Range quality 100.0 %
Copy CRC B8618B94
Copy OK
No errors occurred
AccurateRip summary
Track 1 not present in database
Track 2 not present in database
Track 3 not present in database
Track 4 not present in database
Track 5 not present in database
Track 6 not present in database
Track 7 not present in database
Track 8 not present in database
Track 9 not present in database
Track 10 not present in database
Track 11 not present in database
Track 12 not present in database
Track 13 not present in database
None of the tracks are present in the AccurateRip database
End of status report
Скачано: из e2k релизер yizhutingxiao (HQshare) - спасибо ему!
Отсебятина: Хороший, незаслуженно забытый альбом. Это наверное ререлиз такого альбома 1991 года
Куй и Лог зашиты в файл + присутствуют отдельно.
ЗЫ Ночью мой контупер "спит".